<?xml version="1.0" standalone="no"?> <!DOCTYPE svg PUBLIC "-//W3C//DTD SVG 1.0//EN" "http://www.w3.org/TR/2001/REC-SVG-20010904/DTD/svg10.dtd" > <svg xmlns="http://www.w3.org/2000/svg" width="100%" height="100%">
<defs >
<font id="tf2" horiz-adv-x="1166" ><font-face
    font-family="TF2 Build"
    units-per-em="2048"
    panose-1="2 0 0 0 0 0 0 0 0 0"
    ascent="1790"
    descent="-402"
    alphabetic="0" />
<missing-glyph horiz-adv-x="2048" />
<glyph unicode=" " glyph-name="space" horiz-adv-x="819" />
<glyph unicode="!" glyph-name="exclam" horiz-adv-x="504" d="M0 150Q0 180 11 209T44 262T96 299T166 315Q169 315 171 315Q210 315 241 301Q273 286 295 262T327 209T336 150Q334 117 320 90T282 44T228 13T166 2Q135 2 106 13T53 43T15 90T0 150ZM72 485L109
1415L399 1401L315 471L72 485Z" />
<glyph unicode="&quot;" glyph-name="quotedbl" horiz-adv-x="483" d="M2 1522L172 1524L137 1171L29 1167L2 1522ZM190 1534H375L328 1171L207 1188L190 1534Z" />
<glyph unicode="#" glyph-name="numbersign" horiz-adv-x="1352" d="M0 760V981H270L246 1325H516V1006H836L860 1276L1106 1251L1081 1006H1253V784H1057L1032 563L1180 588L1204 342H1008L983 121L786 145V317H516V96H270V293H74L49 489L270 514V760H0ZM516
539L811 563L836 784L516 760V539Z" />
<glyph unicode="$" glyph-name="dollar" horiz-adv-x="799" d="M14 864Q14 890 20 920Q32 962 57 998T118 1061T201 1105T303 1128L282 1374H444L413 1130L444 1128Q462 1128 493 1123T561 1105T635 1075T704 1032L590 838Q562 862 527 881T455 913T382 929Q372
930 362 930Q338 930 318 924Q290 916 271 895T248 838Q248 793 272 761T331 701T408 648T484 587T540 508Q559 468 559 413Q559 405 559 397Q545 335 501 299T395 252L403 39H256L282 252Q239 257 198 272T124 305Q85 324 51 348L133 494Q207 432 266 418Q287
414 305 414Q338 414 362 430Q374 442 366 459T336 497T286 538L228 581L173 621Q147 640 133 655L102 681Q79 701 57 733T21 812Q14 836 14 864Z" />
<glyph unicode="%" glyph-name="percent" horiz-adv-x="1167" d="M8 1051Q8 1004 26 963T75 891T148 843T238 825Q289 825 332 842T407 891T457 963T475 1051Q475 1099 457 1140T407 1213T332 1262T238 1280Q190 1280 149 1262T76 1213T26 1141T8 1051ZM51 209L838
1329L989 1219L223 86L51 209ZM147 1038Q147 1077 173 1101T238 1126Q281 1126 308 1102T336 1038Q336 1002 309 976T238 949Q219 949 203 956T174 975T154 1004T147 1038ZM600 327T600 373T617 459T665 530T737 577T825 594Q875 594 917 577T991 530T1041 460T1059
373T1041 286T992 214T918 165T825 147Q778 147 737 165T666 214T618 286ZM743 385Q743 350 767 327T826 304Q866 304 891 327T916 385Q916 418 891 442T826 466Q791 466 767 442T743 385Z" />
<glyph unicode="&amp;" glyph-name="ampersand" horiz-adv-x="1266" d="M10 305Q10 335 16 369Q31 440 60 499T125 608T197 696L266 768Q187 873 156 960Q129 1037 129 1100Q129 1109 129 1118Q134 1188 167 1240T250 1328T360 1380T477 1397Q541 1396 592 1376T679
1320T738 1234T766 1124Q767 1114 767 1104Q767 1067 754 1032Q739 988 712 946T647 862L571 782Q595 750 618 724L666 670L717 617L776 559Q786 574 799 592L826 626Q839 643 849 657T862 680L1044 514L988 436L938 369L1028 276L1102 194L1171 115L981 -74L923
-3L857 76L772 178Q676 100 579 57T370 10Q365 10 361 10Q322 10 280 17Q234 26 191 45T112 93T50 162T15 253Q10 278 10 305ZM289 369Q289 336 315 309Q348 275 395 275Q414 275 435 280Q508 300 592 385Q570 413 547 440L501 492L460 541Q440 565 426 586Q391
552 360 516T309 442Q289 404 289 369ZM362 1066Q362 1049 366 1028Q369 1011 383 984T426 913Q468 942 493 982T518 1067Q518 1100 505 1121T472 1153Q456 1161 438 1161Q435 1161 431 1161Q409 1159 392 1144T367 1099Q362 1085 362 1066Z" />
<glyph unicode="&apos;" glyph-name="quotesingle" horiz-adv-x="324" d="M2 1536H221L166 1106L23 1124L2 1536Z" />
<glyph unicode="(" glyph-name="parenleft" horiz-adv-x="801" d="M3 729Q3 732 3 735Q3 862 43 984Q85 1108 165 1214T364 1404T634 1536L701 1319Q660 1305 610 1282T509 1223T410 1140T325 1029T266 887T243 711Q243 635 262 567T313 439T385 330T468 240T551
171T624 123L509 -76Q265 57 135 258T3 729Z" />
<glyph unicode=")" glyph-name="parenright" horiz-adv-x="799" d="M0 1319L68 1536Q220 1488 337 1405T535 1215T658 983Q698 862 698 735Q698 732 698 729Q697 595 662 479T562 264T403 80T193 -76L78 123Q110 141 151 170T234 240T316 330T388 439T439 566T459
711Q459 808 437 887T377 1029T292 1139T193 1222T92 1281T0 1319Z" />
<glyph unicode="*" glyph-name="asterisk" horiz-adv-x="799" d="M6 1352L88 1450L668 969L592 883L6 1352ZM8 1006L627 1434L694 1337L82 901L8 1006ZM283 1534H391L410 827L289 825L283 1534Z" />
<glyph unicode="+" glyph-name="plus" horiz-adv-x="860" d="M0 604L2 809L752 821L754 606L0 604ZM258 1075H473L463 293L260 295L258 1075Z" />
<glyph unicode="," glyph-name="comma" horiz-adv-x="399" d="M5 170Q5 189 10 206Q18 234 35 256T77 294T130 313Q142 315 154 315Q201 315 238 289Q284 256 300 195Q303 179 305 161Q306 152 306 144Q306 133 304 121Q302 100 294 76T267 25Q252 1 232 -22T190
-67T145 -108T101 -143L28 -72Q54 -52 73 -35T106 -3Q121 12 130 25Q83 40 49 67T7 147Q5 159 5 170Z" />
<glyph unicode="-" glyph-name="hyphen" horiz-adv-x="733" d="M0 553L2 772L649 760L645 553H0Z" />
<glyph unicode="." glyph-name="period" horiz-adv-x="444" d="M0 150Q0 180 11 209T44 262T96 299T166 315Q208 316 240 301T295 262T327 209T336 150Q334 117 320 90T282 44T228 13T166 2Q135 2 106 13T53 43T15 90T0 150Z" />
<glyph unicode="/" glyph-name="slash" horiz-adv-x="877" d="M0 137L557 1399L774 1290L238 45L0 137Z" />
<glyph unicode="0" glyph-name="zero" horiz-adv-x="1372" d="M2 625T2 721T25 905T89 1071T189 1211T318 1319T469 1388T637 1413Q723 1413 803 1389T954 1319T1082 1211T1182 1071T1247 906T1270 721T1247 537T1183 373T1083 235T954 128T804 59T637 35Q550
35 470 59T319 127T190 234T90 373T25 537ZM336 637Q336 550 364 484T436 374T533 306T637 283Q685 283 738 306T836 373T910 484T940 637Q940 723 914 790T845 903T748 973T637 997Q579 997 525 973T429 903T362 790T336 637Z" />
<glyph unicode="1" glyph-name="one" horiz-adv-x="799" d="M41 1096L346 1397L666 1376L608 35L262 53L297 989L207 897L41 1096Z" />
<glyph unicode="2" glyph-name="two" horiz-adv-x="1190" d="M0 1184Q10 1198 35 1220T98 1268T186 1320T295 1366T421 1400T561 1413Q609 1413 663 1408T771 1388T876 1343T969 1267T1042 1152T1087 989Q1091 963 1091 937Q1091 900 1083 864Q1071 800 1044 739T978
621T898 514Q801 396 672 289H989L993 43H172V270Q215 274 269 295T382 351T497 430T603 526T687 634T735 746Q741 774 741 801T735 856Q722 910 674 958Q635 998 578 1004Q564 1005 550 1005Q507 1005 460 992Q399 974 339 937T231 854L0 1184Z" />
<glyph unicode="3" glyph-name="three" horiz-adv-x="1188" d="M0 1186Q12 1196 39 1216T105 1262T194 1314T301 1363T421 1399T551 1413Q598 1413 655 1408T770 1387T885 1344T988 1275T1066 1173T1108 1032Q1111 1010 1111 990Q1111 956 1103 926Q1092 877 1069
836T1014 762T948 701Q867 639 760 598Q831 573 881 531Q902 513 921 490T952 437T968 371Q969 363 969 354Q969 325 961 293Q944 225 897 174T781 89T631 42Q584 34 536 34Q501 34 465 38Q381 48 300 82T152 178L264 371Q331 328 388 307T493 279Q513 277 531
277Q555 277 576 281Q613 289 637 303T672 336T682 371Q677 406 656 429T604 467T535 488T457 497T380 500H315L313 707Q434 707 521 728T656 783T715 862Q717 873 717 884Q717 918 694 954Q667 994 615 1005Q593 1010 567 1010Q535 1010 497 1002Q431 988 356
952T207 860L0 1186Z" />
<glyph unicode="4" glyph-name="four" horiz-adv-x="1323" d="M0 623L653 1405H952L958 657H1169V422H952V27H664V416H2L0 623ZM420 639L684 637L696 987L420 639Z" />
<glyph unicode="5" glyph-name="five" horiz-adv-x="1096" d="M0 539V1405H995V1008H315V795Q468 795 567 774T725 713T811 620T846 498Q848 480 848 461Q848 433 844 403Q836 353 812 303T746 207T639 122T487 59T283 25L242 256Q324 261 390 280Q418 288 445
300T495 328T531 367T549 418Q550 425 550 431Q550 466 530 488Q508 515 467 528T369 545Q330 548 287 548Q269 548 250 547Q188 546 124 543T0 539Z" />
<glyph unicode="6" glyph-name="six" horiz-adv-x="983" d="M5 524Q5 532 5 541Q8 667 37 778T116 984T234 1157T382 1294T553 1392T740 1452L869 1096Q739 1073 632 1021Q586 998 540 967T455 895T387 800T345 680Q360 686 381 696T429 713Q482 725 533 725Q561
725 588 721Q666 711 728 674T833 574T886 424Q888 408 888 392Q888 341 868 288Q843 219 789 163T653 70T468 33Q466 33 463 33Q363 33 278 73Q192 113 131 182T35 345Q5 429 5 524ZM360 330Q360 321 361 313Q364 294 377 278T410 252T455 237Q466 235 478 235Q493
235 509 238Q535 242 559 256T601 292T626 338Q629 349 629 360Q629 374 624 387Q614 414 594 430T549 453Q529 458 507 458Q502 458 498 458Q471 456 449 449Q393 423 374 386Q360 357 360 330Z" />
<glyph unicode="7" glyph-name="seven" horiz-adv-x="1159" d="M0 1403L1059 1399V1108L436 29L160 170L678 1038L6 1020L0 1403Z" />
<glyph unicode="8" glyph-name="eight" horiz-adv-x="1165" d="M0 954Q0 1048 41 1132T154 1280T326 1380T541 1417Q650 1417 745 1380T910 1280T1022 1133T1063 954Q1063 897 1046 844T997 743T924 657T831 590Q876 543 903 489T930 375Q930 303 896 240T804
130T667 56T502 29T338 56T203 129T112 239T78 375Q78 404 87 436T113 498T149 557T193 606Q150 642 115 679T54 759T14 849T0 954ZM315 897Q315 862 333 833T381 784T448 752T522 741Q566 741 606 752T677 783T726 832T745 897Q745 934 730 965T685 1018T615 1053T522
1065Q477 1065 440 1053T374 1019T331 965T315 897ZM348 395Q348 336 387 297T502 258Q531 258 559 268T610 297T645 341T659 395Q659 417 646 437T610 474T560 500T502 510Q465 510 436 500T388 474T358 438T348 395Z" />
<glyph unicode="9" glyph-name="nine" horiz-adv-x="1024" d="M2 970Q2 981 2 992Q5 1043 19 1093T59 1192T125 1279T217 1348T337 1393Q388 1404 442 1404Q464 1404 486 1402Q562 1396 632 1369T763 1295T865 1178Q937 1054 951 910Q954 871 954 830Q954 724
929 614Q916 560 888 499T818 373T725 244T614 120T489 10T357 -80L157 168Q173 175 208 194T288 244T383 313T477 400T556 503T605 618Q559 583 500 568Q453 556 404 556Q393 556 381 556Q320 560 260 583T149 649T61 753T9 895Q2 931 2 970ZM302 906Q302 892
307 878Q315 855 334 835T382 802T449 786Q478 787 505 795T554 818T588 855Q603 880 603 909Q603 940 589 963Q573 988 551 1003T502 1025Q479 1030 460 1030Q457 1030 454 1030Q395 1025 356 997T304 922Q302 914 302 906Z" />
<glyph unicode=":" glyph-name="colon" horiz-adv-x="442" d="M0 291Q0 322 12 349T44 395T90 426T147 437Q178 437 205 426T253 394T285 348T297 291Q297 259 286 232T254 186T206 155T147 144Q115 144 88 155T42 185T11 232T0 291ZM0 963Q0 994 11 1023T44 1076T96
1113T166 1129Q169 1129 171 1129Q210 1129 241 1115Q273 1100 295 1076T327 1022Q336 995 336 968Q336 966 336 963Q334 931 320 904T282 858T228 827T166 816Q135 816 106 827T53 857T15 904T0 963Z" />
<glyph unicode=";" glyph-name="semicolon" horiz-adv-x="420" d="M0 986Q0 1016 11 1045T43 1097T94 1134T162 1148Q193 1148 219 1134T264 1097T294 1045T305 986Q305 955 294 926T264 873T219 836T162 822Q124 822 94 836T43 873T11 925T0 986ZM18 296Q18 284
20 273Q24 247 35 228T62 194T99 169T143 151Q133 138 119 123Q106 109 87 92T41 54L115 -17Q136 -2 158 18T202 60L244 105Q265 128 281 151Q298 174 306 197T317 243Q319 255 319 267Q319 276 318 285Q316 305 313 321Q298 382 251 414Q213 440 165 440Q154 440
143 439Q115 436 91 421T49 384T23 332Q18 315 18 296Z" />
<glyph unicode="&lt;" glyph-name="less" horiz-adv-x="963" d="M0 719L672 1298L856 1087L373 690L813 311L643 123L0 719Z" />
<glyph unicode="=" glyph-name="equal" horiz-adv-x="944" d="M2 444L4 664L829 651L825 471L2 444ZM29 729L31 946L848 934L844 745L29 729Z" />
<glyph unicode="&gt;" glyph-name="greater" horiz-adv-x="961" d="M0 1087L184 1298L856 719L213 123L43 311L483 690L0 1087Z" />
<glyph unicode="?" glyph-name="question" horiz-adv-x="1229" d="M-2 1255Q56 1300 117 1333T245 1389T387 1423T549 1434Q651 1434 744 1412T912 1347T1041 1242T1118 1098Q1127 1055 1127 1016Q1127 996 1125 977Q1118 921 1098 873T1050 787T995 720T947 676T920
655Q899 638 875 622T824 581T771 518T719 420L465 481Q477 553 502 602T560 688T626 751L688 802Q717 827 737 855T762 922Q763 934 763 946Q763 991 744 1022Q720 1060 676 1077Q637 1092 586 1092Q579 1092 571 1092Q511 1089 446 1069T316 1011T195 922L-2
1255ZM428 150Q428 178 438 205T468 253T516 288T580 303Q583 303 585 303Q621 303 648 290Q678 276 698 254T727 204Q735 180 735 155Q735 153 735 150Q733 121 720 96T686 53T637 25T580 14Q552 14 525 24T477 53T442 96T428 150Z" />
<glyph unicode="@" glyph-name="at" horiz-adv-x="1411" d="M2 641Q2 646 2 651Q3 718 19 785T62 914T127 1030T207 1126Q258 1178 319 1213T445 1271T573 1302T688 1311Q790 1311 892 1278T1080 1182T1225 1031T1302 831Q1308 781 1308 738Q1308 703 1304 672Q1295
605 1273 557T1220 479T1157 430T1097 406T1051 399Q1035 399 1014 403T972 416T929 437T891 467Q857 433 817 412T735 379T651 368T573 377Q522 389 480 410T407 461T359 533T342 625Q342 668 354 710T391 789T448 856T524 905Q593 936 663 936T801 899H960Q960
843 963 801T970 727T981 675T994 639Q1009 606 1028 602Q1054 594 1071 606T1097 646T1106 716T1098 809Q1080 886 1039 942T943 1034T821 1088T688 1106Q653 1106 610 1102T521 1085T430 1048T346 983Q317 954 292 917T248 835T218 738T207 625Q207 549 227 492T279
394T344 325T408 279Q449 253 500 239T603 220Q628 218 653 218Q680 218 707 221Q759 226 801 240L891 55Q823 21 740 10Q691 3 641 3Q607 3 573 6Q489 14 411 38T276 100Q142 191 71 325Q2 455 2 641ZM526 651Q526 624 533 605T553 571T582 549T616 537Q629 535
644 535Q650 535 655 535Q677 536 699 543T742 565T776 602Q787 625 789 645Q790 654 790 661Q790 672 788 682Q784 700 776 717Q768 735 748 748T701 769Q677 777 650 777Q649 777 647 776Q619 776 596 764Q583 757 571 745T548 717T532 685T526 651Z" />
<glyph unicode="A" glyph-name="A" horiz-adv-x="1454" d="M0 96L524 1434L813 1415L1356 117L1085 18L930 408H485L348 0L0 96ZM543 582H852L678 989L543 582Z" />
<glyph unicode="B" glyph-name="B" horiz-adv-x="1230" d="M0 1423L391 1444Q427 1444 468 1444T558 1440T663 1426T784 1401Q848 1385 905 1352T1006 1273T1078 1171T1114 1053Q1120 1023 1121 988Q1121 973 1119 956Q1115 903 1097 851T1047 752T969 674Q944
657 921 646T873 626T823 610T768 596Q842 553 887 506T950 391Q959 361 959 326T951 256T926 187T883 127Q839 83 777 58T647 21T517 5T410 0H39L0 1423ZM381 1090L387 743Q398 743 431 740Q453 738 479 738Q492 738 506 738Q548 740 594 748T678 778T738 837Q757
868 757 916Q757 925 756 934Q751 989 722 1023T644 1074T528 1094Q508 1095 486 1095Q437 1095 381 1090ZM403 457L406 211Q421 210 450 209Q462 208 475 208Q493 208 512 209Q545 211 579 217T640 238T683 278Q695 297 695 325Q695 332 694 340Q688 394 656 420Q625
446 582 456Q548 464 510 464Q500 464 490 463Q442 461 403 457Z" />
<glyph unicode="C" glyph-name="C" horiz-adv-x="1351" d="M12 703Q12 788 29 867Q50 966 95 1054T208 1214T368 1339T573 1421T820 1450Q907 1450 984 1438T1121 1409T1218 1377T1262 1354V989Q1241 1003 1200 1019T1104 1048T987 1066Q959 1068 931 1069Q895
1069 859 1065Q820 1065 769 1055T663 1023T559 965T472 878T419 758Q410 722 410 680Q410 644 417 604Q431 532 479 478T594 386T743 331T904 310Q911 310 918 310Q990 310 1058 325Q1132 341 1185 375V86Q1149 57 1101 38T998 9T889 -6T783 -10Q687 -10 593 13T413
79T254 182T128 317T44 479T13 662Q12 682 12 703Z" />
<glyph unicode="D" glyph-name="D" horiz-adv-x="1487" d="M0 1413Q61 1420 128 1425T260 1434T379 1440T471 1442Q535 1442 619 1437T796 1412T980 1356T1151 1256T1288 1100T1372 874Q1387 797 1387 726Q1387 675 1379 628Q1361 514 1310 420T1178 252T995 127T774
46T528 12Q380 4 283 3Q251 3 223 3Q167 3 127 4Q58 6 20 12L0 1413ZM334 1018L352 283Q401 280 446 280Q544 280 627 294Q749 315 831 367T955 501Q990 571 990 661Q990 676 989 692Q985 762 961 815T900 906T814 970T713 1009T605 1030Q554 1036 508 1036Q504
1036 500 1036Q450 1036 407 1031T334 1018Z" />
<glyph unicode="E" glyph-name="E" horiz-adv-x="1271" d="M0 1432H1161V1090H369L375 618H813V426H383L387 270L1036 291L1044 18L18 0L0 1432Z" />
<glyph unicode="F" glyph-name="F" horiz-adv-x="1262" d="M0 8L20 1444L1161 1411L1153 1069L389 1090V604H838L836 412L389 416L387 0L0 8Z" />
<glyph unicode="G" glyph-name="G" horiz-adv-x="1371" d="M8 698Q8 782 25 862Q46 961 91 1049T204 1210T364 1335T569 1417T818 1446Q905 1446 982 1434T1118 1405T1214 1373T1260 1350V985Q1239 999 1198 1015T1102 1043T984 1062Q955 1065 926 1065Q891 1065
857 1061Q818 1061 766 1051T660 1018T555 959T468 872T415 752Q406 716 406 676Q406 639 413 598Q428 519 475 462T589 369T736 318Q789 309 843 309Q868 309 894 311V483H722V715H1185V369V80V2H914H779Q683 2 589 24T409 86T250 185T124 316T40 475T9 657Q8
677 8 698Z" />
<glyph unicode="H" glyph-name="H" horiz-adv-x="1558" d="M0 1399H428V641L1102 659L1075 1417L1413 1430L1456 33L1124 18L1112 422L430 408V0H2L0 1399Z" />
<glyph unicode="I" glyph-name="I" horiz-adv-x="585" d="M66 12L125 1446L518 1425L459 -8L66 12Z" />
<glyph unicode="J" glyph-name="J" horiz-adv-x="975" d="M0 133L96 362Q106 357 125 349T171 331T226 312T284 299T339 294T385 305Q428 326 446 406T471 626T481 969T500 1438L864 1419Q864 1366 863 1275T857 1074T848 843T833 612T813 410T786 266Q765 195
725 146T635 67T535 23T442 6Q421 5 401 5Q357 5 313 10Q249 19 192 36T85 79T0 133Z" />
<glyph unicode="K" glyph-name="K" horiz-adv-x="1185" d="M0 1423L389 1442L410 936L838 1442L1092 1208L582 680L1053 215L858 20L426 512L467 20L78 0L0 1423Z" />
<glyph unicode="L" glyph-name="L" horiz-adv-x="1023" d="M0 1425L391 1444L430 266L868 297L879 39L59 0L0 1425Z" />
<glyph unicode="M" glyph-name="M" horiz-adv-x="1575" d="M4 1432H311L782 393L1180 1393L1450 1401L1473 39L1151 35L1147 774L823 -8L678 8L365 692L387 2H23L4 1432Z" />
<glyph unicode="N" glyph-name="N" horiz-adv-x="1345" d="M0 0V1434H291L930 522L887 1419L1217 1432L1239 39L969 18L365 868L385 0H0Z" />
<glyph unicode="O" glyph-name="O" horiz-adv-x="1596" d="M0 617T0 719T26 916T101 1093T216 1243T366 1359T544 1433T743 1460Q852 1460 951 1434T1134 1359T1288 1243T1405 1093T1480 916T1507 719Q1507 618 1481 525T1406 350T1288 203T1135 89T951 16T743
-10Q640 -10 545 16T367 89T217 202T101 350T27 524ZM334 678Q334 598 366 526T453 398T583 309T743 276Q836 276 915 309T1051 397T1141 525T1174 678Q1174 766 1142 839T1052 965T915 1047T743 1077Q658 1077 584 1048T454 966T366 840T334 678Z" />
<glyph unicode="P" glyph-name="P" horiz-adv-x="1215" d="M0 1430L391 1450Q428 1450 472 1450T567 1445T678 1433T803 1409T926 1359T1025 1275T1092 1165T1116 1038Q1116 994 1115 953T1104 874T1075 799T1018 725Q984 685 935 658T831 614T715 587T600 573T495
568T412 567V20L39 0L0 1430ZM391 1137L399 770Q411 770 446 768Q469 767 496 768Q510 768 524 768Q568 769 616 776T702 805T764 864Q783 895 783 940Q783 950 782 961Q777 1019 749 1056T670 1114T550 1139Q521 1141 488 1141Q442 1141 391 1137Z" />
<glyph unicode="Q" glyph-name="Q" horiz-adv-x="1599" d="M2 719Q2 820 28 913T103 1087T218 1234T367 1348T543 1422T739 1448Q846 1448 944 1422T1127 1349T1280 1235T1397 1087T1472 913T1499 719Q1499 597 1459 485T1346 280T1172 123T946 29L1212 -127L1047
-336L596 8Q474 30 366 95T177 256T49 471T2 719ZM338 666Q338 587 369 517T455 394T582 310T739 279Q831 279 909 310T1045 393T1134 516T1167 666Q1167 752 1135 824T1045 948T910 1030T739 1059Q655 1059 582 1030T455 949T370 824T338 666Z" />
<glyph unicode="R" glyph-name="R" horiz-adv-x="1230" d="M0 1423L391 1444Q463 1444 565 1439T801 1405Q860 1392 915 1357T1013 1273T1085 1162T1118 1034Q1120 1005 1120 978Q1120 964 1120 951Q1118 912 1108 874T1075 799T1014 721Q982 688 941 664T854
622T763 594T674 578L1053 195L858 20L399 541L410 20L39 0L0 1423ZM391 741Q405 741 441 738Q472 735 509 735Q515 736 522 736Q567 736 615 744T701 774T762 835Q780 867 781 916Q781 927 780 938Q773 996 745 1033T667 1091T548 1116Q521 1118 491 1118Q444
1118 391 1114V741Z" />
<glyph unicode="S" glyph-name="S" horiz-adv-x="1224" d="M6 1009Q6 1050 16 1094Q39 1175 92 1240T221 1350T390 1421T586 1446Q673 1446 748 1438T889 1412T1017 1363T1136 1288L940 954Q896 999 840 1034T724 1090T606 1117Q591 1118 578 1118Q537 1118 502
1107Q456 1092 426 1055T391 954Q391 899 414 857T474 778T558 710L653 645Q701 612 746 575T825 490T876 384Q889 342 889 291Q889 270 887 248Q880 174 845 123T758 40T641 -3Q595 -11 549 -11Q530 -11 510 -10Q469 -7 429 1T351 21T278 47T213 75Q142 108 78
150L146 277L171 324L192 365L208 394Q214 405 213 406Q332 302 420 272Q451 261 479 261Q481 261 484 261Q531 261 567 289Q591 313 580 343T536 406Q503 440 454 474L356 542L263 606Q219 637 194 662L170 682Q151 698 127 725T76 789T32 872T8 975Q6 992 6 1009Z"
/>
<glyph unicode="T" glyph-name="T" horiz-adv-x="1377" d="M0 1397L1260 1436L1270 1145L797 1126L815 14L446 0L426 1114L10 1094L0 1397Z" />
<glyph unicode="U" glyph-name="U" horiz-adv-x="1528" d="M0 1434H442Q442 1207 440 1029Q439 970 439 915Q439 806 442 716Q447 580 464 486T520 334Q558 274 622 250Q676 230 755 230Q771 230 788 231Q889 236 952 276T1049 387T1096 560T1109 790Q1109 811
1109 833Q1109 942 1105 1070Q1100 1222 1100 1397H1125Q1149 1397 1185 1397T1263 1396H1341Q1377 1396 1401 1396L1425 1397Q1425 1238 1425 1118T1422 906T1419 748T1413 626T1403 526T1389 432Q1373 339 1321 259T1187 118T999 24T770 -10Q650 -10 555 9T385
61T255 135T161 221T97 310T57 393Q47 422 39 459T25 551T14 682T6 864T2 1110T0 1434Z" />
<glyph unicode="V" glyph-name="V" horiz-adv-x="1578" d="M-2 1339L287 1434L688 463L1065 1460L1479 1358L891 -2L571 18L-2 1339Z" />
<glyph unicode="W" glyph-name="W" horiz-adv-x="1966" d="M0 1389L397 1436L590 573L856 1436L1067 1419L1303 481L1540 1423L1878 1362L1516 14L1198 49L989 846L690 -2H338L0 1389Z" />
<glyph unicode="X" glyph-name="X" horiz-adv-x="1469" d="M12 254L451 717L29 1184L311 1436L702 977L1057 1384L1255 1200L872 766L1354 231L1065 -6L664 459L254 8L12 254Z" />
<glyph unicode="Y" glyph-name="Y" horiz-adv-x="1510" d="M0 1235L258 1454L772 899L1188 1434L1407 1274L932 700L971 8L614 -12L573 662L0 1235Z" />
<glyph unicode="Z" glyph-name="Z" horiz-adv-x="1221" d="M0 1098V1436L1012 1421V1153L508 258L936 252L924 6L98 33V236L647 1098H0Z" />
<glyph unicode="[" glyph-name="bracketleft" horiz-adv-x="524" d="M0 1425H410V1288H195L233 139L410 158L418 23L39 2L0 1425Z" />
<glyph unicode="\" glyph-name="backslash" horiz-adv-x="881" d="M0 1290L217 1399L774 137L537 45L0 1290Z" />
<glyph unicode="]" glyph-name="bracketright" horiz-adv-x="512" d="M0 23L8 158L184 139L215 1296H0V1434H410L379 2L0 23Z" />
<glyph unicode="^" glyph-name="asciicircum" horiz-adv-x="1108" d="M4 975L520 1528L999 975L815 827L500 1219L152 827L4 975Z" />
<glyph unicode="_" glyph-name="underscore" horiz-adv-x="1124" d="M0 -287L2 -106L1016 -117L1012 -287H0Z" />
<glyph unicode="`" glyph-name="grave" horiz-adv-x="340" d="M0 1407L94 1538L340 1331L274 1245L0 1407Z" />
<glyph unicode="a" glyph-name="a" horiz-adv-x="1454" d="M0 96L524 1434L813 1415L1356 117L1085 18L930 408H485L348 0L0 96ZM543 582H852L678 989L543 582Z" />
<glyph unicode="b" glyph-name="b" horiz-adv-x="1229" d="M0 1423L391 1444Q427 1444 468 1444T558 1440T663 1426T784 1401Q848 1385 905 1352T1006 1273T1078 1171T1114 1053Q1120 1023 1121 988Q1121 973 1119 956Q1115 903 1097 851T1047 752T969 674Q944
657 921 646T873 626T823 610T768 596Q842 553 887 506T950 391Q959 361 959 326T951 256T926 187T883 127Q839 83 777 58T647 21T517 5T410 0H39L0 1423ZM381 1090L387 743Q398 743 431 740Q453 738 479 738Q492 738 506 738Q548 740 594 748T678 778T738 837Q757
868 757 916Q757 925 756 934Q751 989 722 1023T644 1074T528 1094Q508 1095 486 1095Q437 1095 381 1090ZM403 457L406 211Q421 210 450 209Q462 208 475 208Q493 208 512 209Q545 211 579 217T640 238T683 278Q695 297 695 325Q695 332 694 340Q688 394 656 420Q625
446 582 456Q548 464 510 464Q500 464 490 463Q442 461 403 457Z" />
<glyph unicode="c" glyph-name="c" horiz-adv-x="1354" d="M12 703Q12 788 29 867Q50 966 95 1054T208 1214T368 1339T573 1421T820 1450Q907 1450 984 1438T1121 1409T1218 1377T1262 1354V989Q1241 1003 1200 1019T1104 1048T987 1066Q959 1068 931 1069Q895
1069 859 1065Q820 1065 769 1055T663 1023T559 965T472 878T419 758Q410 722 410 680Q410 644 417 604Q431 532 479 478T594 386T743 331T904 310Q911 310 918 310Q990 310 1058 325Q1132 341 1185 375V86Q1149 57 1101 38T998 9T889 -6T783 -10Q687 -10 593 13T413
79T254 182T128 317T44 479T13 662Q12 682 12 703Z" />
<glyph unicode="d" glyph-name="d" horiz-adv-x="1487" d="M0 1413Q61 1420 128 1425T260 1434T379 1440T471 1442Q535 1442 619 1437T796 1412T980 1356T1151 1256T1288 1100T1372 874Q1387 797 1387 726Q1387 675 1379 628Q1361 514 1310 420T1178 252T995 127T774
46T528 12Q380 4 283 3Q251 3 223 3Q167 3 127 4Q58 6 20 12L0 1413ZM334 1018L352 283Q401 280 446 280Q544 280 627 294Q749 315 831 367T955 501Q990 571 990 661Q990 676 989 692Q985 762 961 815T900 906T814 970T713 1009T605 1030Q554 1036 508 1036Q504
1036 500 1036Q450 1036 407 1031T334 1018Z" />
<glyph unicode="e" glyph-name="e" horiz-adv-x="1270" d="M0 1432H1161V1090H369L375 618H813V426H383L387 270L1036 291L1044 18L18 0L0 1432Z" />
<glyph unicode="f" glyph-name="f" horiz-adv-x="1262" d="M0 8L20 1444L1161 1411L1153 1069L389 1090V604H838L836 412L389 416L387 0L0 8Z" />
<glyph unicode="g" glyph-name="g" horiz-adv-x="1370" d="M8 698Q8 782 25 862Q46 961 91 1049T204 1210T364 1335T569 1417T818 1446Q905 1446 982 1434T1118 1405T1214 1373T1260 1350V985Q1239 999 1198 1015T1102 1043T984 1062Q955 1065 926 1065Q891 1065
857 1061Q818 1061 766 1051T660 1018T555 959T468 872T415 752Q406 716 406 676Q406 639 413 598Q428 519 475 462T589 369T736 318Q789 309 843 309Q868 309 894 311V483H722V715H1185V369V80V2H914H779Q683 2 589 24T409 86T250 185T124 316T40 475T9 657Q8
677 8 698Z" />
<glyph unicode="h" glyph-name="h" horiz-adv-x="1559" d="M0 1399H428V641L1102 659L1075 1417L1413 1430L1456 33L1124 18L1112 422L430 408V0H2L0 1399Z" />
<glyph unicode="i" glyph-name="i" horiz-adv-x="677" d="M66 12L125 1446L518 1425L459 -8L66 12Z" />
<glyph unicode="j" glyph-name="j" horiz-adv-x="975" d="M0 133L96 362Q106 357 125 349T171 331T226 312T284 299T339 294T385 305Q428 326 446 406T471 626T481 969T500 1438L864 1419Q864 1366 863 1275T857 1074T848 843T833 612T813 410T786 266Q765 195
725 146T635 67T535 23T442 6Q421 5 401 5Q357 5 313 10Q249 19 192 36T85 79T0 133Z" />
<glyph unicode="k" glyph-name="k" horiz-adv-x="1186" d="M0 1423L389 1442L410 936L838 1442L1092 1208L582 680L1053 215L858 20L426 512L467 20L78 0L0 1423Z" />
<glyph unicode="l" glyph-name="l" horiz-adv-x="983" d="M0 1425L391 1444L430 266L868 297L879 39L59 0L0 1425Z" />
<glyph unicode="m" glyph-name="m" horiz-adv-x="1575" d="M4 1432H311L782 393L1180 1393L1450 1401L1473 39L1151 35L1147 774L823 -8L678 8L365 692L387 2H23L4 1432Z" />
<glyph unicode="n" glyph-name="n" horiz-adv-x="1345" d="M0 0V1434H291L930 522L887 1419L1217 1432L1239 39L969 18L365 868L385 0H0Z" />
<glyph unicode="o" glyph-name="o" horiz-adv-x="1595" d="M0 617T0 719T26 916T101 1093T216 1243T366 1359T544 1433T743 1460Q852 1460 951 1434T1134 1359T1288 1243T1405 1093T1480 916T1507 719Q1507 618 1481 525T1406 350T1288 203T1135 89T951 16T743
-10Q640 -10 545 16T367 89T217 202T101 350T27 524ZM334 678Q334 598 366 526T453 398T583 309T743 276Q836 276 915 309T1051 397T1141 525T1174 678Q1174 766 1142 839T1052 965T915 1047T743 1077Q658 1077 584 1048T454 966T366 840T334 678Z" />
<glyph unicode="p" glyph-name="p" horiz-adv-x="1215" d="M0 1430L391 1450Q428 1450 472 1450T567 1445T678 1433T803 1409T926 1359T1025 1275T1092 1165T1116 1038Q1116 994 1115 953T1104 874T1075 799T1018 725Q984 685 935 658T831 614T715 587T600 573T495
568T412 567V20L39 0L0 1430ZM391 1137L399 770Q411 770 446 768Q468 767 496 767Q509 767 524 767Q568 768 616 776T702 805T764 864Q783 894 783 940Q783 950 782 961Q777 1019 749 1056T670 1114T550 1139Q520 1141 488 1141Q442 1141 391 1137Z" />
<glyph unicode="q" glyph-name="q" horiz-adv-x="1599" d="M2 719Q2 820 28 913T103 1087T218 1234T367 1348T543 1422T739 1448Q846 1448 944 1422T1127 1349T1280 1235T1397 1087T1472 913T1499 719Q1499 597 1459 485T1346 280T1172 123T946 29L1212 -127L1047
-336L596 8Q474 30 366 95T177 256T49 471T2 719ZM338 666Q338 587 369 517T455 394T582 310T739 279Q831 279 909 310T1045 393T1134 516T1167 666Q1167 752 1135 824T1045 948T910 1030T739 1059Q655 1059 582 1030T455 949T370 824T338 666Z" />
<glyph unicode="r" glyph-name="r" horiz-adv-x="1229" d="M0 1423L391 1444Q463 1444 565 1439T801 1405Q860 1392 915 1357T1013 1273T1085 1162T1118 1034Q1120 1005 1120 978Q1120 964 1120 951Q1118 912 1108 874T1075 799T1014 721Q982 688 941 664T854
622T763 594T674 578L1053 195L858 20L399 541L410 20L39 0L0 1423ZM391 741Q405 741 441 738Q472 735 509 735Q515 736 522 736Q567 736 615 744T701 774T762 835Q780 867 781 916Q781 927 780 938Q773 996 745 1033T667 1091T548 1116Q521 1118 491 1118Q444
1118 391 1114V741Z" />
<glyph unicode="s" glyph-name="s" horiz-adv-x="1225" d="M6 1009Q6 1050 16 1094Q39 1175 92 1240T221 1350T390 1421T586 1446Q673 1446 748 1438T889 1412T1017 1363T1136 1288L940 954Q896 999 840 1034T724 1090T606 1117Q591 1118 578 1118Q537 1118 502
1107Q456 1092 426 1055T391 954Q391 899 414 857T474 778T558 710L653 645Q701 612 746 575T825 490T876 384Q889 342 889 291Q889 270 887 248Q880 174 845 123T758 40T641 -3Q595 -11 549 -11Q530 -11 510 -10Q469 -7 429 1T351 21T278 47T213 75Q142 108 78
150L146 277L171 324L192 365L208 394Q214 405 213 406Q332 302 420 272Q451 261 479 261Q481 261 484 261Q531 261 567 289Q591 313 580 343T536 406Q503 440 454 474L356 542L263 606Q219 637 194 662L170 682Q151 698 127 725T76 789T32 872T8 975Q6 992 6 1009Z"
/>
<glyph unicode="t" glyph-name="t" horiz-adv-x="1368" d="M0 1397L1260 1436L1270 1145L797 1126L815 14L446 0L426 1114L10 1094L0 1397Z" />
<glyph unicode="u" glyph-name="u" horiz-adv-x="1530" d="M0 1434H442Q442 1207 440 1029Q439 970 439 915Q439 806 442 716Q447 580 464 486T520 334Q558 274 622 250Q676 230 755 230Q771 230 788 231Q889 236 952 276T1049 387T1096 560T1109 790Q1109 811
1109 833Q1109 942 1105 1070Q1100 1222 1100 1397H1125Q1149 1397 1185 1397T1263 1396H1341Q1377 1396 1401 1396L1425 1397Q1425 1238 1425 1118T1422 906T1419 748T1413 626T1403 526T1389 432Q1373 339 1321 259T1187 118T999 24T770 -10Q650 -10 555 9T385
61T255 135T161 221T97 310T57 393Q47 422 39 459T25 551T14 682T6 864T2 1110T0 1434Z" />
<glyph unicode="v" glyph-name="v" horiz-adv-x="1578" d="M-2 1339L287 1434L688 463L1065 1460L1479 1358L891 -2L571 18L-2 1339Z" />
<glyph unicode="w" glyph-name="w" horiz-adv-x="1966" d="M0 1389L397 1436L590 573L856 1436L1067 1419L1303 481L1540 1423L1878 1362L1516 14L1198 49L989 846L690 -2H338L0 1389Z" />
<glyph unicode="x" glyph-name="x" horiz-adv-x="1468" d="M12 254L451 717L29 1184L311 1436L702 977L1057 1384L1255 1200L872 766L1354 231L1065 -6L664 459L254 8L12 254Z" />
<glyph unicode="y" glyph-name="y" horiz-adv-x="1509" d="M0 1235L258 1454L772 899L1188 1434L1407 1274L932 700L971 8L614 -12L573 662L0 1235Z" />
<glyph unicode="z" glyph-name="z" horiz-adv-x="1221" d="M0 1098V1436L1012 1421V1153L508 258L936 252L924 6L98 33V236L647 1098H0Z" />
<glyph unicode="{" glyph-name="braceleft" horiz-adv-x="586" d="M5 1087Q5 1106 7 1126Q21 1212 59 1271T159 1366T301 1418T484 1434V1260Q454 1262 428 1262Q392 1262 362 1258Q311 1251 277 1236T223 1198T193 1151T180 1100T177 1049Q177 1007 195 970T235
899T275 832T294 762Q294 734 279 697T236 631Q261 617 273 595T290 550Q295 524 294 496Q294 467 286 444T266 401L243 362Q231 343 225 323T219 280T236 227Q250 198 274 186T329 172Q337 171 345 171Q368 171 394 175Q429 181 464 188V18Q429 15 399 15Q371
15 347 18Q295 22 257 32T191 56T146 84T118 112L101 133Q72 175 63 215Q55 247 55 277Q55 284 55 290Q57 326 68 358T91 419L113 471Q122 495 122 514Q122 529 112 543T86 568T49 585T7 592V707Q28 707 51 708T93 714T125 730T138 762Q138 781 127 801T100 845L65
896Q47 923 33 956T10 1032Q5 1058 5 1087Z" />
<glyph unicode="|" glyph-name="bar" horiz-adv-x="512" d="M189 -5L197 1433H389L379 2L189 -5Z" />
<glyph unicode="}" glyph-name="braceright" horiz-adv-x="586" d="M0 1260V1434Q100 1434 182 1418T325 1366T424 1271T477 1126Q479 1105 479 1086Q479 1057 474 1032Q467 990 453 957T420 895L384 845Q368 822 357 802T346 762Q346 741 358 730T390 714T433
708T477 707V592Q456 592 436 586T399 568T372 543T362 514Q362 495 371 471T393 419T416 359T429 290Q430 283 430 275Q430 246 422 214Q412 175 383 133Q374 121 354 99T293 56T186 22Q146 15 93 15Q59 15 20 18V188Q56 181 91 175Q116 171 139 171Q147 171 156
172Q186 174 210 186T248 227Q263 256 264 279T260 323T242 362L219 401Q207 421 199 444T190 496Q189 524 194 550Q199 572 211 594T248 631Q220 659 205 696T190 762Q190 798 208 831T248 899T288 970T307 1049Q307 1073 304 1099T291 1151T261 1198T207 1235T122
1258Q93 1262 56 1262Q30 1262 0 1260Z" />
<glyph unicode="~" glyph-name="asciitilde" horiz-adv-x="1108" d="M-4 678Q6 692 25 716T71 767T131 822T202 872T279 909T360 924Q413 924 449 908T510 867T554 813T590 760T628 719T678 702Q710 702 740 723T793 771Q820 801 844 840L1012 686Q1001 672 981
651T935 605T879 557T817 514T754 482T694 471Q647 471 614 485T555 519T509 562T469 606T427 639T375 653Q352 653 332 646T293 626T260 599T231 568Q201 530 178 483L-4 678Z" />
</font>
</defs>
</svg>
