<?xml version="1.0" standalone="no"?>
<!DOCTYPE svg PUBLIC "-//W3C//DTD SVG 1.1//EN" "http://www.w3.org/Graphics/SVG/1.1/DTD/svg11.dtd" >
<svg xmlns="http://www.w3.org/2000/svg">
<metadata>Generated by IcoMoon</metadata>
<defs>
<font id="Steam-Community-Font" horiz-adv-x="512">
<font-face units-per-em="512" ascent="480" descent="-32" />
<missing-glyph horiz-adv-x="512" />
<glyph unicode="&#x20;" d="" horiz-adv-x="256" />
<glyph unicode="&#xe000;" d="M254.25 82.654c0-18.895-15.899-41.465-47.685-67.716-31.792-26.252-67.677-39.375-107.638-39.375-30.701 0-54.867 9.673-72.484 29.022-17.619 19.346-26.431 46.28-26.431 80.793 0 50.867 17.986 98.555 53.956 143.063 35.971 44.507 74.391 66.761 115.265 66.761 20.341 0 36.69-6.449 49.049-19.347 12.355-12.896 18.529-28.248 18.529-46.049 0-31.61-15.167-61.721-45.505-90.333-30.344-28.611-69.215-48.369-116.629-59.267-5.451-1.271-8.176-4.543-8.176-9.809 0-8.723 3.857-17.031 11.582-24.935 7.722-7.901 18.025-11.853 30.929-11.853 36.514 0 72.757 18.803 108.727 56.406 6.901 7.267 13.624 10.899 20.165 10.899 10.899-0.001 16.347-6.087 16.347-18.257zM71.406 130.884c28.703 5.816 53.993 18.077 75.89 36.788 21.889 18.711 32.834 35.695 32.834 50.955 0 5.996-1.68 11.037-5.041 15.123-3.364 4.088-7.675 6.132-12.943 6.132-15.805 0-33.34-11.627-52.592-34.881-19.255-23.25-31.976-47.956-38.148-74.118zM500.053 230.185c0-13.346-12.343-24.266-27.428-24.266h-178.227c-15.086 0-27.428 10.92-27.428 24.267s12.343 24.267 27.428 24.267h178.227c15.086 0 27.428-10.92 27.428-24.267zM223.040 321.286c-3.963 0-6.886 0.776-8.77 2.328-1.882 1.558-2.825 5.635-2.825 12.238 0 3.7 0.167 6.527 0.497 8.473 0.328 1.95 1.933 3.487 4.804 4.609 2.876 1.125 7.019 1.687 12.439 1.687 4.029 0 7.099-0.945 9.215-2.824 2.117-1.884 3.173-3.95 3.173-6.195 0-3.703-0.582-6.538-1.735-8.524-1.157-1.981-3.668-4.443-7.532-7.387-3.865-2.937-6.952-4.407-9.265-4.407zM335.789 436.24c-0.592-0.53-1.125-2.017-1.583-4.462-0.464-2.441-1.803-13.805-4.016-34.085-2.212-20.285-3.317-36.504-3.317-48.66 0-5.022 0.592-10.632 1.784-16.848 0.328-0.925 0.493-1.982 0.493-3.167 0-3.569-1.040-6.772-3.12-9.611-2.082-2.844-4.74-4.265-7.977-4.265-2.18 0-4.94 1.072-8.272 3.223-3.339 2.145-5.339 5.798-5.998 10.95-0.661 5.151-0.993 11.858-0.993 20.119 0 11.296 1.324 28.108 3.967 50.436 2.639 22.332 4.225 33.728 4.755 34.191-1.851 0-9.25-0.495-22.199-1.49-13.016-0.987-20.576-1.481-22.692-1.481-6.803 0-11.529 0.874-14.173 2.624-2.641 1.751-3.961 4.509-3.961 8.275 0 3.371 1.403 5.949 4.213 7.727 2.808 1.786 9.924 2.681 21.355 2.681 19.026 0 37.69 1.252 55.991 3.76 20.611 3.176 36.234 4.761 46.873 4.761 11.892 0 19.127-1.403 21.7-4.211 2.579-2.809 3.866-5.602 3.866-8.375 0-6.408-2.839-9.613-8.52-9.613-1.853 0-4.827 0.201-8.92 0.596-4.163 0.332-9.019 0.495-14.569 0.495-16.72-0.002-28.282-1.188-34.689-3.569zM504.26 442.384c-1.587-1.057-3.502-1.587-5.748-1.587-1.324 0-2.478 0.133-3.469 0.4-1.719 0.326-4.558 0.495-8.522 0.495-8.195 0-17.555-0.593-28.094-1.784-10.538-1.191-17.757-2.577-21.654-4.163-4.163-12.552-6.738-27.515-7.731-44.892 2.709 0.394 5.452 0.763 8.228 1.091 10.236 1.055 19.784 2.409 28.639 4.058 7.397 1.328 13.341 1.985 17.839 1.985 10.038 0 15.060-3.501 15.060-10.505 0-1.257-0.976-2.957-2.923-5.101-1.951-2.145-4.049-3.683-6.295-4.611-2.245-0.927-6.408-1.818-12.487-2.672l-26.558-3.273c-10.173-1.256-17.705-2.51-22.594-3.764-0.728-0.332-1.274-0.945-1.637-1.831-0.363-0.895-0.827-4.893-1.387-11.992-0.563-7.104-0.844-13.663-0.844-19.667l0.397-12.591c0-7.798-3.632-11.692-10.899-11.692-3.703 0-7.219 1.357-10.553 4.064-3.339 2.709-5.009 6.376-5.009 11 0 8.585 0.995 20.909 2.976 36.96 0.132 0.725 3.567 25.143 10.307 73.236 0 2.249-0.332 4.163-0.991 5.751-0.991 2.835-1.487 5.116-1.487 6.834 0 2.38 1.402 4.869 4.212 7.48 2.81 2.616 5.402 3.915 7.779 3.915 1.587 0 3.236-0.195 4.955-0.593 2.445-0.527 4.988-0.794 7.632-0.794 2.576 0 13.143 1.061 31.712 3.173 12.087 1.319 21.108 1.981 27.051 1.981 6.276 0 11.149-0.975 14.618-2.921 3.469-1.952 5.204-3.717 5.204-5.306 0-5.547-2.579-9.812-7.731-12.784v0.101z" />
<glyph unicode="&#xe001;" d="M113.807 353.57c21.252 13.309 44.607 22.828 68.669 29.071 24.017 6.44 48.875 9.704 73.721 9.704 7.435 0.044 14.853-0.332 22.277-0.895l5.877 15.264c-9.25 0.745-18.639 1.158-28.154 1.158-95.623 0-178.951-38.565-222.961-95.666l30.041-5.172c13.54 18.856 31.176 34.373 50.528 46.536zM256.197 381.073c-23.91-0.056-47.851-2.757-70.976-8.812-23.025-6.285-45.236-15.668-65.186-28.517-16.573-10.587-31.329-23.809-43.448-39.008l31.937-5.489c9.868 11.621 21.802 21.349 34.527 29.345 16.94 10.555 35.5 18.096 54.609 23.038 19.078 5.137 38.808 7.717 58.537 7.786 3.276 0.008 6.55-0.156 9.827-0.287l8.219 21.305c-6.022 0.387-12.043 0.596-18.045 0.639zM200.419 341.264c-18.087-4.986-35.499-12.421-51.127-22.5-9.749-6.239-18.59-13.693-26.475-21.988l44.847-7.719c17.746 21.548 49.317 36.169 85.722 37.241l8.326 21.623c-1.829 0.067-3.683 0.188-5.514 0.2-18.781-0.109-37.606-2.095-55.779-6.858zM450.861 300.44c12.317-18.947 19.884-41.168 20.861-63.74l40.276-6.927c-5.988 81.351-82.132 148.942-184.716 170.689l-4.511-16.167c26.524-6.572 52.040-17.095 75.070-31.916 20.849-13.519 39.452-30.943 53.019-51.938zM363.853 319.957c-16.387 10.080-34.363 17.072-52.979 21.592l-6.485-23.247c32.116-11.755 54.88-35.177 57.986-62.768l58.239-10.023c-2.639 13.166-8.021 25.736-15.696 36.731-10.675 15.375-25.119 27.913-41.065 37.715zM445.192 296.688c-13.496 19.664-31.805 35.719-52.073 48.26-22.551 13.894-47.464 23.223-73.232 28.969l-6.167-22.11c19.377-5.339 37.969-13.443 54.864-24.404 16.529-10.795 31.255-24.69 41.995-41.408 8.060-12.497 13.524-26.753 15.604-41.445l40.654-7.004c-1.764 21.217-9.556 41.696-21.646 59.142zM61.911 159.351c-14.459 20.225-23.679 44.837-23.976 70.51-0.376 16.19 2.781 32.546 8.79 47.751l-31.619 5.646c-9.757-19.937-15.105-41.421-15.105-63.827 0-75.234 59.969-140.165 146.649-170.37l15.281 39.712c-15.791 5.583-31.099 12.572-45.52 21.304-21.020 12.529-40.043 28.983-54.499 49.276zM107.1 177.056c9.794-16.072 23.797-29.596 39.59-40.391 8.791-5.947 18.175-10.873 27.901-15.009l-0.189-0.493c-9.893 3.89-19.521 8.476-28.728 13.904-16.707 9.791-31.847 22.718-43.493 38.728-11.599 15.949-19.067 35.62-19.451 55.977-0.331 13.661 2.581 27.328 7.805 40.009l-32.133 5.733c-6.484-14.358-10.41-29.843-10.697-45.832-0.441-23.212 6.45-46.844 19.123-67.058 12.603-20.368 30.504-37.417 50.596-50.937 14.005-9.173 29.069-16.517 44.728-22.365l36.766 95.524c-28.055 13.892-46.514 37.472-46.514 64.226 0 3.219 0.356 6.373 0.861 9.481l-51.103 9.143c-5.736-11.832-9.285-24.691-9.662-37.924-0.35-18.24 4.787-36.689 14.601-52.716zM449.297 160.141c-13.942-20.38-32.822-36.829-53.511-49.735-10.341-6.373-21.147-11.873-32.274-16.563l-0.31 0.433c11.084 4.837 21.779 10.513 31.967 17.089 20.424 13.149 38.466 30.185 51.589 50.464 8.161 12.616 14.223 26.567 17.56 41.101l-39.813 7.123c-2.89-12.703-8.060-24.909-15.485-35.463-11.127-16.105-26.115-29.029-42.5-39.206-7.752-4.765-15.857-8.857-24.173-12.417 8.262 3.714 15.947 8.424 23.569 13.375 16.091 10.411 30.272 23.93 40.569 39.923 6.752 10.587 11.413 22.33 13.895 34.517l-64.18 11.48c-14.169-28.178-49.93-48.565-92.565-50.341l-38.844-139.48c10.298-0.927 20.764-1.455 31.407-1.455 130.107 0 237.485 71.358 253.938 163.75l-41.745 7.466c-3.723-15.064-10.298-29.421-19.095-42.062zM255.993 300.824c-34.341 0-62.207-20.477-62.207-45.755 0-25.273 27.865-45.765 62.207-45.765 34.363 0 62.221 20.493 62.221 45.765 0.001 25.276-27.856 45.755-62.221 45.755zM255.993 216.143c-24.393 0-44.189 14.554-44.189 32.508 0 17.942 19.796 32.489 44.189 32.489 24.404 0 44.197-14.548 44.197-32.489 0-17.954-19.792-32.508-44.197-32.508z" />
<glyph unicode="&#xe002;" d="M511.406 371.934c-1.363 9.24-3.62 17.356-6.709 24.135-3.123 6.851-6.901 12.775-11.223 17.611-4.38 4.901-9.327 8.935-14.704 11.992-5.135 2.92-10.509 5.195-15.969 6.762-5.315 1.524-10.707 2.547-16.032 3.039-5.045 0.467-9.872 0.703-14.356 0.703-7.007 0-13.842-0.637-20.32-1.894-6.327-1.227-12.369-2.835-17.964-4.781-5.611-1.952-10.885-4.203-15.673-6.692-4.711-2.447-8.932-4.92-12.548-7.347-3.707-2.487-6.868-4.901-9.396-7.178-0.856-0.771-1.606-1.483-2.308-2.173l0.69 29.52-170.018 3.226-184.875-5.096 1.96-59.467 54.77 2.633 2.64-146.962 67.995 2.579-2.376 146.82 59.061 2.372-2.089-150.148 70.486-1.457 0.264 55.030 58.956-0.526 0.466 44.743h-59.376v44.579l100.629-2.767 0.345 14.856 33.659-48.084 8.132 7.791c3.711 3.556 7.966 6.825 12.648 9.713 4.52 2.786 9.123 4.877 13.683 6.212 3.159 0.925 6.219 1.394 9.091 1.394 0.928 0 1.853-0.049 2.755-0.144 2.724-0.291 4.858-1.31 6.713-3.214 3.010-3.012 4.86-6.007 5.577-8.986 0.793-3.299 0.786-6.597-0.019-10.075-0.899-3.865-2.622-7.852-5.121-11.853-2.728-4.369-6.048-8.637-9.863-12.688-3.912-4.153-8.256-8.109-12.916-11.756-4.7-3.678-9.471-6.942-14.175-9.701-4.659-2.731-9.204-4.974-13.51-6.676-3.929-1.548-7.369-2.468-10.224-2.735l-8.764-0.813v-48.424h127.853l-0.842 51.788h-26.574c4.461 4.549 8.641 9.195 12.52 13.916 3.779 4.609 7.493 9.601 11.038 14.852 3.683 5.452 6.881 11.176 9.514 17.014 2.712 6.020 4.714 12.255 5.952 18.537 1.306 6.644 1.489 13.313 0.545 19.822zM500.774 220.534l-67.152-2.584 3.816-107.099-75.683-2.019v106.952h-79.861l0.009-5.583-57.757 10.423-26.361-104.769-25.704 102.171-44.465 3.583-29.193-94.714-21.264 95.079-75.629-8.953 51.763-213.019h65.221l33.503 95.020 23.262-88.711 59.937-6.31 46.737 174.225 0.25-174.225h79.837v56.498l77.441 1.589 1.703-57.384 66.265 2.995z" />
<glyph unicode="&#xe004;" d="M109.694 329.154c10.099 0 18.285-8.188 18.285-18.286h0.004c0 10.099 8.188 18.286 18.286 18.286h73.154c7.088 0 13.221-4.041 16.256-9.939l13.602 112.753-5.424 6.869c-75.065-4.035-141.869-46.351-178.407-109.683h44.243zM365.728 329.154c10.099 0 18.286-8.188 18.286-18.286h0.005c0 10.099 8.187 18.286 18.286 18.286h44.051c-27.034 46.827-71.015 83.248-124.7 99.995l-8.976-7.049-11.212-92.945h64.26zM438.881 109.703h-36.577c-10.099 0-18.286 8.187-18.286 18.286h-0.005c0-10.099-8.187-18.286-18.286-18.286h-90.741l-12.363-102.452 5.697-7.232c75.838 4.195 143.193 47.44 179.383 111.954-2.618-1.443-5.624-2.271-8.823-2.271zM201.132 127.989c0-10.099-8.188-18.286-18.286-18.286h-36.577c-10.099 0-18.285 8.187-18.285 18.286l-0.002 74.574-36.577 4.409v-78.983c0-10.099-8.188-18.286-18.285-18.286h-7.639c27.799-48.119 73.504-85.254 129.231-101.359l3.823 3.003 15.302 126.832c-4.476 2.325-8.719 5.003-12.703 7.988v-18.178zM438.881 237.717v36.576h36.576v36.576h-73.153v-182.88h36.577v73.152h36.576v36.576zM475.457 201.141h36.573v-73.152h-36.574zM475.457 274.293h36.573v-36.575h-36.574zM109.694 310.869h-109.725c0-12.191 0-24.387 0-36.576h36.571l0.005-146.304h36.575c0 48.766 0 97.537 0 146.304h36.575v36.576zM365.728 164.565h-73.149v36.576h73.149v109.728h-109.727v-36.576h73.149v-36.576h-73.149v-109.728h109.727zM219.424 237.717h-36.577v36.576h36.577v36.576h-73.155v-182.88h36.577v73.152h36.577z" />
<glyph unicode="&#xe005;" d="M138.611 140.748c-0.581 0.606-0.996 1.337-1.551 1.942-1.928 2.016-3.49 4.335-5.255 6.503-2.496 3.101-5.105 6.075-7.261 9.428-2.168 3.352-3.844 6.984-5.647 10.565-1.336 2.622-2.9 5.089-4.020 7.837-1.853 4.538-3.089 9.353-4.336 14.144-0.555 2.143-1.425 4.135-1.853 6.303-1.412 7.11-2.193 14.445-2.193 21.957 0 3.528 0.719 6.881 1.034 10.335 0 0.026 0.025 0.077 0.025 0.101 0.049 0.429 0.076 0.857 0.126 1.287l-92.219-92.221c30.907-78.225 105.468-133.964 193.651-138.124v-0.279c3.44-0.149 6.843-0.527 10.322-0.527 8.911 0 17.672 0.631 26.268 1.714 0.681 0.101 1.337 0.226 2.017 0.303 8.295 1.135 16.489 2.672 24.479 4.64l-133.84 133.84 0.252 0.25zM437.853 235.008c-0.353 5.018-0.755 10.036-1.461 14.976-1.009 6.983-2.269 13.916-3.884 20.697-0.151 0.505-0.202 1.008-0.303 1.514l-133.84-133.84-0.252 0.25c-10.161-9.881-22.111-17.923-35.42-23.442-1.084-0.455-2.271-0.633-3.38-1.062-5.645-2.144-11.394-4.134-17.418-5.341-7.262-1.489-14.774-2.271-22.463-2.271-3.529 0-6.869 0.731-10.323 1.034-0.039 0-0.076 0.024-0.113 0.024-0.429 0.050-0.857 0.075-1.286 0.127l92.219-92.219c10.108 4.009 19.839 8.724 29.167 14.119 0.125 0.073 0.253 0.176 0.404 0.253 18.276 10.613 34.839 23.823 49.286 39.048 0.654 0.707 1.284 1.439 1.94 2.144 6.755 7.36 13.108 15.101 18.857 23.295 0.101 0.201 0.252 0.377 0.404 0.553 5.646 8.145 10.613 16.789 15.125 25.69 0.833 1.613 1.613 3.252 2.369 4.918 4.084 8.52 7.714 17.293 10.664 26.394 0.152 0.48 0.377 0.933 0.531 1.411 2.923 9.301 5.091 18.983 6.755 28.788 0.404 2.293 0.755 4.613 1.060 6.933 1.411 9.981 2.369 20.091 2.369 30.426 0 5.293-0.606 10.385-1.009 15.579zM140.753 300.252c0.617 0.606 1.36 1.060 1.991 1.639 1.451 1.361 3.101 2.496 4.613 3.781 3.177 2.622 6.34 5.269 9.807 7.537 3.732 2.496 7.714 4.563 11.748 6.631 1.299 0.63 2.521 1.361 3.832 1.967 14.244 6.579 29.925 10.563 46.69 10.563 4.008 0 7.816-0.756 11.724-1.185l-92.005 92.017c-1.436-0.58-2.862-1.16-4.273-1.739-7.475-3.127-14.773-6.579-21.781-10.487-0.996-0.555-2.041-1.009-3.013-1.563-8.168-4.715-15.944-10.009-23.394-15.733-1.198-0.906-2.369-1.839-3.555-2.772-47.812-38.167-79.26-95.873-82.337-161.143h-0.276c-0.151-3.455-0.516-6.856-0.516-10.336 0-8.901 0.629-17.671 1.714-26.269 0.088-0.683 0.228-1.336 0.303-1.991 1.135-8.32 2.66-16.488 4.639-24.503l133.84 133.839 0.252-0.254zM330.733 404.167c0.685 0.883 1.263 1.639 1.943 2.496-4.888 2.976-9.656 6.127-14.772 8.723-1.589 0.781-3.226 1.488-4.816 2.245-7.916 3.756-16.058 7.059-24.479 9.857-1.26 0.428-2.497 0.957-3.781 1.36-9.202 2.875-18.707 5.043-28.385 6.681-2.168 0.378-4.363 0.681-6.555 0.984-9.983 1.388-20.094 2.345-30.453 2.345-5.282 0-10.387-0.606-15.568-1.009-5.030-0.353-10.047-0.755-14.975-1.437-6.996-1.033-13.917-2.293-20.709-3.907-0.493-0.125-1.009-0.176-1.5-0.303l104.937-104.924c16.033 20.772 35.295 45.808 59.116 76.89zM423.18 299.722c-0.529 1.387-1.11 2.748-1.664 4.136-3.428 8.193-7.212 16.209-11.546 23.873-0.353 0.605-0.631 1.261-0.981 1.865-4.791 8.22-10.26 16.009-16.009 23.497-1.337 1.714-2.673 3.428-4.034 5.092-3.301 4.059-7.058 7.688-10.587 11.521l-59.143-98.597c6.404-12.605 10.738-26.446 12.099-41.267 0-0.026 0.024-0.050 0.024-0.077 0.328-3.454 1.034-6.807 1.034-10.335 0-4.008-0.755-7.815-1.185-11.723l91.993 92.015zM110.716 247.413l96.521-135.136 215.628 359.393c0 0 3.105 31.841-91.358-91.382-94.488-123.224-119.132-154.029-119.132-154.029s-98.579 50.517-101.659 21.154z" horiz-adv-x="439" />
<glyph unicode="&#xe006;" d="M329.142 172.128l31.139-31.139c7.025 12.589 12.418 26.212 15.881 40.589v69.197h-47.020v-78.647zM282.123 309.277c12.534-8.762 23.151-20.073 31.091-33.191l0.256-0.123v37.507h-31.348v-4.192zM266.449 109.997v-44.796c11.022 3.358 21.538 7.864 31.421 13.376l-31.421 31.42zM62.695 181.577c4.465-18.548 12.133-35.844 22.391-51.276 7.052-10.608 15.334-20.325 24.629-28.968v118.095h-47.020v-37.851zM219.429 58.216c6.825 0 13.548 0.428 20.152 1.252 1.125 0.14 2.241 0.31 3.357 0.474v52.307c-7.575-1.654-15.439-2.533-23.51-2.533s-15.935 0.879-23.51 2.533v-52.307c1.118-0.164 2.234-0.334 3.359-0.474 6.601-0.824 13.326-1.252 20.151-1.252zM125.388 88.482c4.323-3.111 8.804-6.015 13.434-8.692 10.501-6.075 21.759-10.986 33.587-14.589v55.077c-19.549 9.288-35.916 24.185-47.020 42.615v-74.411zM438.851 219.824c-0.002 1.984-0.039 3.96-0.091 5.929-0.034 1.305-0.091 2.601-0.147 3.899-0.024 0.548-0.050 1.096-0.077 1.643-1.769 35.262-11.452 68.025-29.106 98.276-19.617 33.619-46.238 60.238-79.856 79.857-30.249 17.654-63.015 27.336-98.276 29.105-0.547 0.027-1.093 0.053-1.641 0.077-1.298 0.056-2.595 0.114-3.9 0.149-1.97 0.051-3.944 0.088-5.929 0.091-0.132 0-0.263 0.005-0.395 0.005s-0.263-0.005-0.395-0.005c-1.985-0.004-3.96-0.040-5.929-0.091-1.305-0.035-2.601-0.093-3.899-0.149-0.548-0.024-1.096-0.049-1.643-0.077-35.261-1.769-68.025-11.452-98.275-29.105-33.62-19.619-60.237-46.238-79.857-79.857-17.652-30.25-27.336-63.015-29.105-98.276-0.028-0.548-0.053-1.095-0.077-1.643-0.056-1.297-0.114-2.595-0.148-3.899-0.051-1.971-0.088-3.945-0.091-5.929 0-0.131-0.005-0.263-0.005-0.395 0-0.125 0.005-0.249 0.005-0.375 0.003-1.981 0.040-3.952 0.091-5.919 0.033-1.271 0.089-2.536 0.143-3.8 0.024-0.559 0.050-1.118 0.079-1.675 1.756-35.3 11.44-68.096 29.11-98.373 19.619-33.62 46.238-60.239 79.857-79.856 30.167-17.604 62.833-27.286 97.983-29.094 0.199-0.010 0.399-0.019 0.597-0.027 1.705-0.084 3.411-0.163 5.128-0.211 1.939-0.053 3.883-0.084 5.837-0.091 0.2 0 0.398-0.009 0.596-0.009 0.073 0 0.147 0.003 0.22 0.003 1.961 0.002 3.911 0.041 5.857 0.091 0.904 0.024 1.807 0.051 2.708 0.084 0.661 0.024 1.316 0.063 1.976 0.092 35.684 1.62 68.817 11.321 99.381 29.16 33.618 19.617 60.239 46.236 79.856 79.856 17.67 30.276 27.356 63.073 29.112 98.373 0.027 0.558 0.055 1.116 0.077 1.675 0.053 1.264 0.11 2.529 0.143 3.8 0.051 1.967 0.088 3.937 0.091 5.919 0 0.125 0.005 0.25 0.005 0.375 0.001 0.131-0.005 0.263-0.005 0.395zM387.716 148.428c-6.404-14.879-14.245-28.383-23.505-40.533l-75.178 75.178c5.692 10.873 8.927 23.233 8.927 36.356 0 43.371-35.159 78.531-78.529 78.531-43.371 0-78.531-35.159-78.531-78.531 0-43.37 35.159-78.529 78.531-78.529 13.123 0 25.483 3.236 36.356 8.927l75.177-75.178c-12.149-9.26-25.654-17.101-40.531-23.505-22.574-9.711-46.241-14.572-71.002-14.572-24.762 0-48.428 4.861-71 14.572-22.573 9.716-42 22.714-58.285 39-16.285 16.286-29.285 35.716-39 58.286-9.715 22.574-14.572 46.24-14.572 71.001s4.857 48.429 14.572 71 22.715 42 39 58.286c16.285 16.286 35.713 29.286 58.285 39 22.571 9.713 46.238 14.57 70.999 14.57 24.761 0 48.429-4.857 71.002-14.571 22.568-9.715 41.999-22.715 58.284-39s29.284-35.715 39-58.286c9.712-22.572 14.572-46.239 14.572-71s-4.861-48.428-14.572-71.001zM264.062 219.429c0-24.651-19.982-44.633-44.633-44.633-24.65 0-44.632 19.981-44.632 44.633 0 24.649 19.982 44.632 44.632 44.632 24.65 0 44.633-19.983 44.633-44.632z" horiz-adv-x="439" />
<glyph unicode="&#xe007;" d="M240.924 130.505l-14.869-123.238 5.697-7.233c92.096 5.096 171.688 67.781 198.128 156.221l-4.784 6.097-124.472 15.010c-12.173-23.473-34.008-40.624-59.7-46.857zM9.666 212.438l-9.645-7.598c6.011-91.801 69.36-170.824 158.131-196.479l3.821 3.002 15.299 126.833c-23.472 12.19-40.606 33.981-46.844 59.683l-120.764 14.558zM432.456 226.041l6.391 5.007c-4.74 91.527-66.407 170.868-153.766 198.119l-8.974-7.050-14.646-121.421c23.467-12.191 40.607-33.981 46.844-59.687l124.151-14.967zM197.807 308.385l14.909 123.604-5.424 6.868c-91.445-4.913-170.643-66.649-197.769-153.995l6.796-8.64 121.796-14.697c12.168 23.476 33.996 40.579 59.694 46.861z" horiz-adv-x="439" />
<glyph unicode="&#xe008;" d="M118.857 73.143h-45.715v292.572h45.715c15.085 0 27.429 12.343 27.429 27.428v18.286c0 15.085-12.343 27.428-27.428 27.428h-91.428c-15.085 0-27.428-12.343-27.428-27.428v-384c0-15.086 12.343-27.428 27.428-27.428h91.428c15.086 0 27.428 12.343 27.428 27.428v18.286c0 15.086-12.341 27.428-27.428 27.428zM484.572 438.857h-91.428c-15.086 0-27.428-12.343-27.428-27.428v-18.286c0-15.085 12.343-27.428 27.428-27.428h45.713v-292.572h-45.714c-15.086 0-27.428-12.343-27.428-27.428v-18.286c0-15.086 12.343-27.428 27.428-27.428h91.428c15.086 0 27.428 12.343 27.428 27.428v384c0 15.085-12.343 27.428-27.428 27.428zM365.714 182.857v73.143h-73.143v73.143h-73.143v-73.143h-73.143v-73.143h73.143v-73.143h73.143v73.143z" />
<glyph unicode="&#xe009;" d="M360.378 261.336c7.154-3.418 15.163-5.336 23.62-5.336 30.298 0 54.858 24.561 54.858 54.857 0 30.297-24.56 54.857-54.858 54.857s-54.856-24.561-54.856-54.857c0-8.459 1.918-16.468 5.337-23.622 5.407-11.319 14.58-20.491 25.899-25.899zM384.001 438.857c-70.693 0-128.001-57.308-128.001-128 0-5.813 0.395-11.533 1.145-17.141l-112.413-112.413c-5.428 1.003-11.013 1.555-16.731 1.555-50.495 0-91.428-40.933-91.428-91.43 0-50.493 40.934-91.428 91.428-91.428s91.428 40.933 91.428 91.428c0 1.855-0.072 3.692-0.18 5.519l133.969 89.645c9.861-2.435 20.171-3.736 30.785-3.736 70.69 0.001 127.998 57.31 127.998 128.001s-57.308 128-127.999 128zM128 36.572c-30.297 0-54.857 24.56-54.857 54.856 0 30.298 24.56 54.858 54.857 54.858s54.857-24.56 54.857-54.858c0-30.296-24.56-54.856-54.857-54.856zM400.731 220.983c-5.428-1.003-11.015-1.554-16.733-1.554-50.495 0-91.428 40.933-91.428 91.428 0 5.717 0.551 11.304 1.555 16.731 7.864 42.5 45.096 74.697 89.873 74.697 50.497 0 91.43-40.933 91.43-91.428 0-44.777-32.197-82.009-74.697-89.875zM162.915 107.41l0.008 0.003-0.057 0.108c-0.66 1.426-1.401 2.807-2.225 4.132l-87.497 162.537c-6.144 13.024-19.389 22.038-34.743 22.038-21.208 0-38.4-17.192-38.4-38.401 0-6.752 1.748-13.094 4.809-18.606l89.412-166.072c6.498-11.981 19.188-20.12 33.778-20.12 21.208 0 38.4 17.192 38.4 38.399 0 5.705-1.254 11.115-3.486 15.983z" />
<glyph unicode="&#xe00a;" d="M22.805 395.679c18.306-13.827 43.263-0.456 62.152-13.12 26.871-16.112 50.043-37.703 75.997-55.223l-0.787-0.583c-25.543-18.269-49.129-39.363-76.043-55.517-18.844-12.123-43.473 0.788-61.651-12.829-18.468-10.797-20.508-34.963-15.432-53.644 7.322-19.476 28.995-28.567 48.752-26.824 34.32-2.328 67.475 11.252 94.68 31.308 25.957 19.556 51.875 39.195 77.871 58.709 10.567 8.18 23.712 11.501 36.109 15.82 22.672-0.994 45.799-2.493 68.219 1.577 32.452 10.052 39.563 59.004 11.067 77.483-23.92 14.325-53.368 6.892-79.787 8.263-29.073 5.024-49.833 26.907-72.877 43.349-26.665 19.058-51.167 42.394-82.617 53.522-23.212 9.8-49.126 7.807-73.629 5.855-34.733-7.020-41.684-60.5-12.024-78.147zM343.241 44.157c-18.178 13.618-42.805 0.707-61.651 12.829-26.915 16.153-50.5 37.247-76.043 55.517l-0.787 0.583c25.956 17.52 49.126 39.112 75.997 55.223 18.888 12.664 43.846-0.705 62.151 13.12 29.659 17.647 22.709 71.127-12.023 78.145-24.502 1.951-50.416 3.944-73.63-5.855-31.449-11.128-55.951-34.464-82.615-53.522-23.044-16.442-43.804-38.325-72.879-43.349-26.419-1.37-55.867 6.063-79.787-8.263-28.495-18.479-21.384-67.431 11.068-77.483 22.419-4.070 45.547-2.572 68.219-1.577 12.397-4.317 25.541-7.64 36.108-15.82 25.996-19.514 51.916-39.153 77.872-58.709 27.204-20.056 60.359-33.637 94.68-31.309 19.757-1.743 41.43 7.349 48.752 26.824 5.075 18.683 3.034 42.848-15.435 53.645z" horiz-adv-x="366" />
<glyph unicode="&#xe00b;" d="M365.719 164.572h-0.045l-86.241 138.137v99.577l-59.945-36.572-60.055 36.572v-99.753l-86.132-137.961h-0.154l-73.143-45.714 47.252-29.531 0.025-52.755 74.927 36.572h194.56l74.928-36.572 0.025 52.823 47.141 29.463-73.143 45.714zM181.085 164.572l38.403 61.511 38.402-61.511h-76.805z" horiz-adv-x="439" />
<glyph unicode="&#xe00c;" d="M110.421 349.542c-21.436 71.125 45.070 115.265 109.008 72.535 63.935 42.729 130.441-1.409 109.005-72.536-7.356-24.407-109.005-118.451-109.005-118.451s-101.653 94.046-109.008 118.452zM219.429 207.764c0 0-101.653-94.039-109.008-118.445-21.434-71.134 45.069-115.267 109.008-72.536 63.935-42.733 130.441 1.402 109.006 72.536-7.356 24.407-109.005 118.445-109.005 118.445zM349.541 328.438c-24.406-7.356-118.452-109.005-118.452-109.005s94.046-101.654 118.452-109.012c71.125-21.431 115.267 45.075 72.535 109.012 42.731 63.936-1.411 130.44-72.535 109.005zM207.763 219.431c0 0-94.043 101.651-118.451 109.005-71.127 21.435-115.261-45.070-72.531-109.005-42.733-63.938 1.404-130.444 72.531-109.012 24.408 7.36 118.451 109.012 118.451 109.012z" horiz-adv-x="439" />
<glyph unicode="&#xe00d;" d="M278.8 336.704l2.937 9.88 8.161 2.129c0.215 0.336 0.424 0.677 0.655 1.001 0.935 1.317 1.973 2.518 3.104 3.596 6.541 10.353 13.733 14.037 20.496 15.365 4.231 3.779 9.733 6.064 16.056 6.544 2.298 2.015 4.502 3.356 5.879 4.096l4.060 2.184h27.685c-23.304 21.382-51.365 37.899-82.745 47.687l-8.976-7.049-14.646-121.421c1.94-1.007 3.829-2.088 5.676-3.228l11.657 39.217zM402.587 340.813l-0.709-1.043c0.799-1.964 1.239-3.72 1.478-5.061 0.936-5.243-0.049-10.067-4.584-22.447-2.32-6.333-5.649-14.79-9.897-25.137-4.611-11.232-9.538-22.836-13.397-31.823h18.659l-11.649-23.215 49.988-6.025 6.393 5.008c-2.072 40.026-15.041 77.716-36.281 109.744zM138.101 261.545c12.169 23.472 34.001 40.576 59.701 46.858l14.911 123.603-5.425 6.868c-91.454-4.913-170.661-66.648-197.79-153.993l6.794-8.64 121.809-14.695zM30.625 173.328l-0.033 0.563-0.652 9.803c-0.104 1.609-0.016 3.238 0.264 4.855 1.191 7.832 6.771 14.248 14.102 16.668 0.208 1.009 0.517 1.991 0.872 2.957l-35.535 4.284-9.647-7.596c1.096-16.733 4.107-33.036 8.822-48.673 0.302 1.055 0.679 2.096 1.151 3.111 2.351 5.049 6.525 8.877 11.728 10.768l8.929 3.262zM424.521 141.112c-0.26-0.151-0.517-0.3-0.796-0.452l-0.026-0.016-0.027-0.015c-0.358-0.195-0.744-0.394-1.129-0.591l-0.062-0.031-0.087-0.045c-0.276-0.144-0.553-0.286-0.875-0.443-0.343-0.167-0.709-0.339-1.077-0.507l-0.217-0.099-0.153-0.072c-0.267-0.125-0.537-0.249-0.86-0.392-0.351-0.154-0.724-0.31-1.099-0.464l-0.209-0.087-0.177-0.075c-0.315-0.132-0.63-0.264-0.918-0.378-0.385-0.154-0.798-0.31-1.212-0.464l-0.215-0.080-0.215-0.082c-0.315-0.121-0.633-0.243-0.937-0.352-0.411-0.149-0.851-0.3-1.289-0.45l-0.257-0.087-0.243-0.084c-0.315-0.111-0.628-0.219-0.974-0.332-0.511-0.168-1.057-0.339-1.6-0.507l-0.235-0.072-0.233-0.075c-0.277-0.088-0.557-0.176-0.831-0.26-0.997-0.301-2.045-0.603-3.115-0.901-8.325-2.303-13.901-4.394-18.82-6.238-12.596-4.724-21.611-7.659-44.788-7.792-8.167-7.824-15.795-15.442-15.887-15.535l-1.184-1.184-1.38-0.95c-2.803-1.928-13.57-8.216-34.468-8.216-3.868 0-7.927 0.221-12.064 0.656l-0.211 0.023-0.211 0.026c-1.276 0.164-2.546 0.4-3.916 0.728-0.426 0.104-0.849 0.221-1.305 0.356-0.666 0.185-1.456 0.415-2.313 0.717-0.456 0.16-0.909 0.334-1.358 0.514l-0.060 0.024c-0.744 0.293-1.385 0.565-2.009 0.853-0.459 0.212-0.913 0.435-1.372 0.67-0.659 0.336-1.263 0.661-1.855 1.003-0.415 0.239-0.827 0.483-1.235 0.737-0.546 0.339-1.106 0.707-1.678 1.101l-0.084 0.057c-0.346 0.236-0.69 0.476-1.032 0.727-0.666 0.489-1.249 0.952-1.657 1.281l-0.060 0.046c-0.287 0.226-0.572 0.456-0.853 0.693-0.573 0.485-1.155 1.001-1.77 1.575-0.188 0.168-0.373 0.339-0.555 0.513-0.732 0.697-1.466 1.443-2.19 2.216-0.167 0.178-0.329 0.359-0.511 0.565-0.563 0.617-1.032 1.149-1.468 1.666-0.185 0.219-0.367 0.441-0.548 0.664l-0.080 0.099c-0.408 0.5-0.814 1.003-1.233 1.548-0.19 0.247-0.376 0.496-0.579 0.767-0.374 0.5-0.742 1.005-1.103 1.514-0.172 0.243-0.341 0.486-0.534 0.764-0.36 0.522-0.711 1.047-1.066 1.589-0.141 0.215-0.281 0.43-0.451 0.692-0.364 0.574-0.72 1.147-1.056 1.702l-0.055 0.088-0.255 0.421c-0.703 1.18-1.389 2.413-2.063 3.672l-14.090-116.766 5.697-7.232c86.805 4.801 162.496 60.761 193.055 141.221-0.084-0.048-0.16-0.095-0.245-0.143l-0.039-0.024zM162.244 101.86l-0.532-0.243-0.327-0.158-0.161-0.067-0.214-0.097-3.123-1.435-3.429-0.202c-0.231-0.012-4.757-0.276-9.468-0.372l-10.613-2.161c-1.361-0.276-2.753-0.417-4.135-0.417-0.746 0-1.504 0.041-2.265 0.123l-8.12 0.889-8.219 0.727c-2.448 0.216-4.811 0.857-7.028 1.903-0.197 0.092-0.393 0.188-0.588 0.289-6.204 2.959-10.465 8.731-11.563 15.358-0.481 0.183-0.957 0.384-1.427 0.603-1.395 0.651-2.691 1.452-3.882 2.368-1.373-1.892-3.064-3.568-5.043-4.927 0.375-3.683-0.247-7.413-1.849-10.858-2.349-5.050-6.522-8.88-11.734-10.779l-16.296-5.954c-2.2-0.801-4.501-1.215-6.839-1.247 27.886-36.104 66.924-63.58 112.754-76.827l3.823 3.003 11.552 95.75c-4.804-2.287-9.012-4.233-11.243-5.26l-0.033-0.012zM101.597 155.749c-1.081 0-2.037-0.7-2.389-1.702-0.195-0.321-0.331-0.685-0.365-1.081l-0.74-8.365-0.913-8.348c-0.043-0.399 0.019-0.781 0.147-1.136 0.121-0.851 0.665-1.587 1.434-1.947 0.26-0.121 0.546-0.202 0.848-0.231l12.192-1.077-1.331-12.168c-0.128-1.18 0.59-2.262 1.659-2.651 0.085-0.053 0.171-0.106 0.263-0.149 0.26-0.123 0.545-0.204 0.848-0.229l8.406-0.743 8.31-0.909c0.093-0.010 0.184-0.016 0.275-0.016 0.167 0 0.329 0.019 0.488 0.050l0.011 0.092c1.298-0.001 2.417 0.985 2.535 2.305l1.1 12.424 12.428-1.099c1.387-0.123 2.629 0.916 2.75 2.304l0.739 8.353 0.915 8.363c0.018 0.169 0.018 0.337 0.004 0.5 0 0.005 0 0.008 0 0.012-0.022 0.219-0.079 0.43-0.155 0.632-0.125 0.846-0.667 1.574-1.432 1.933-0.261 0.121-0.548 0.202-0.849 0.231l-0.131 0.010-12.061 1.065 1.331 12.171c0.128 1.182-0.591 2.263-1.661 2.652-0.085 0.053-0.172 0.106-0.264 0.149-0.26 0.123-0.543 0.204-0.844 0.228l-8.279 0.731-8.438 0.923c-0.091 0.012-0.186 0.016-0.275 0.016-0.323 0-0.635-0.064-0.924-0.177-1.109-0.188-2.005-1.097-2.108-2.267l-1.080-12.193-12.169 1.329c-0.088 0.007-0.18 0.012-0.271 0.012zM62.249 109.583c1.311 0.478 1.993 1.942 1.514 3.256l-4.279 11.716 11.719 4.28c1.308 0.479 1.991 1.945 1.512 3.255l-5.948 16.286c-0.375 1.026-1.353 1.666-2.389 1.666-0.288 0-0.581-0.049-0.867-0.153l-0.123-0.045-11.595-4.236-4.279 11.721c-0.375 1.025-1.358 1.664-2.397 1.664-0.285 0.001-0.577-0.048-0.861-0.151l-16.287-5.952c-1.311-0.476-1.993-1.94-1.514-3.252l4.28-11.717-11.719-4.283c-1.311-0.479-1.989-1.943-1.512-3.255l5.948-16.288c0.373-1.025 1.353-1.666 2.391-1.666 0.287 0 0.579 0.049 0.865 0.153l11.716 4.279 4.28-11.716c0.377-1.026 1.356-1.666 2.392-1.666 0.288 0 0.58 0.049 0.864 0.153l16.287 5.95zM100.847 184.079l-0.216 3.724-0.031 0.524c-0.059 1.032-0.746 1.871-1.659 2.212-0.008 0.005-0.016 0.009-0.024 0.012-0.043 0.016-0.080 0.046-0.124 0.060-0.082 0.024-0.169 0.036-0.255 0.053-0.043 0.009-0.085 0.019-0.129 0.026-0.039 0.005-0.079 0.008-0.119 0.012-0.103 0.014-0.204 0.029-0.309 0.029-0.055 0-0.111-0.002-0.167-0.005l-2.243-0.149-10.104-0.589-0.722 12.457c-0.064 1.089-0.82 1.984-1.815 2.283-0.275 0.084-0.567 0.121-0.868 0.104l-17.311-1.010c-0.819-0.046-1.523-0.489-1.951-1.125-0.029-0.032-0.049-0.071-0.077-0.105-0.002-0.003-0.005-0.005-0.007-0.009-0.373-0.476-0.589-1.080-0.547-1.728l0.813-12.171-12.349-0.721c-1.276-0.073-2.272-1.097-2.37-2.339-0.057-0.24-0.092-0.488-0.075-0.745l0.656-9.849 0.41-7.058c0.008-0.139 0.056-0.262 0.086-0.393v-0.002c0.090-1.335 1.211-2.369 2.528-2.369 0.057 0 0.114 0.001 0.172 0.005l12.364 0.822 0.709-12.177c0.019-0.303 0.099-0.584 0.213-0.847 0-1.051 0.751-2.272 3.649-1.714l16.346 1.086c1.392 0.094 2.456 1.31 2.364 2.7l-0.829 12.449 10.453 0.695 1.915 0.112c0.195 0.012 0.383 0.050 0.564 0.104 1.145 0.308 1.961 1.393 1.88 2.62l-0.49 7.356-0.331 5.663zM246.151 148.25c2.007 0 3.445 0.536 3.445 0.536s1.781-6.279 5.385-13.613c0.001-0.002 0.002-0.005 0.004-0.007 0.871-1.771 1.847-3.6 2.931-5.421 0.077-0.13 0.159-0.26 0.238-0.391 0.274-0.454 0.555-0.906 0.842-1.358 0.112-0.173 0.225-0.349 0.339-0.522 0.265-0.406 0.536-0.809 0.813-1.212 0.132-0.192 0.265-0.383 0.401-0.574 0.269-0.382 0.546-0.757 0.827-1.132 0.145-0.195 0.291-0.389 0.438-0.58 0.289-0.375 0.587-0.743 0.885-1.11 0.144-0.176 0.286-0.354 0.432-0.527 0.346-0.409 0.7-0.807 1.060-1.201 0.108-0.119 0.212-0.241 0.321-0.358 0.472-0.505 0.955-0.997 1.452-1.469 0.089-0.086 0.183-0.166 0.274-0.249 0.404-0.378 0.812-0.748 1.229-1.101 0.18-0.153 0.365-0.293 0.548-0.441 0.339-0.272 0.679-0.541 1.025-0.796 0.214-0.156 0.43-0.303 0.646-0.452 0.33-0.228 0.664-0.45 1.003-0.659 0.229-0.144 0.463-0.28 0.697-0.415 0.339-0.195 0.683-0.378 1.027-0.555 0.241-0.123 0.483-0.243 0.727-0.356 0.36-0.167 0.727-0.317 1.096-0.462 0.238-0.095 0.476-0.193 0.717-0.277 0.409-0.144 0.829-0.263 1.248-0.38 0.211-0.058 0.416-0.127 0.628-0.178 0.637-0.153 1.284-0.279 1.944-0.363 3.712-0.391 7.087-0.555 10.151-0.555 16.84 0 24.105 4.997 24.105 4.997s11.421 11.417 21.572 20.935c1.966-0.033 3.825-0.051 5.585-0.051 32.938 0 32.092 5.544 60.392 13.373 0.94 0.26 1.839 0.52 2.7 0.781 0.322 0.097 0.613 0.195 0.927 0.291 0.52 0.163 1.050 0.325 1.541 0.487 0.341 0.113 0.651 0.224 0.977 0.337 0.426 0.147 0.865 0.293 1.267 0.439 0.325 0.118 0.62 0.235 0.929 0.352 0.37 0.139 0.753 0.28 1.103 0.42 0.296 0.118 0.563 0.235 0.844 0.352 0.332 0.139 0.675 0.276 0.986 0.413 0.259 0.115 0.49 0.225 0.736 0.339 0.305 0.14 0.618 0.281 0.904 0.421 0.219 0.108 0.415 0.212 0.623 0.319 0.283 0.144 0.57 0.289 0.833 0.432 0.18 0.099 0.341 0.195 0.511 0.293 0.263 0.149 0.529 0.3 0.772 0.449 0.144 0.088 0.271 0.175 0.408 0.263 0.243 0.156 0.487 0.312 0.709 0.466 0.112 0.077 0.211 0.156 0.315 0.232 0.223 0.163 0.445 0.325 0.644 0.486 0.084 0.067 0.156 0.132 0.236 0.2 0.202 0.168 0.401 0.337 0.579 0.503 0.060 0.056 0.11 0.11 0.167 0.164 0.18 0.176 0.356 0.352 0.51 0.524 0.039 0.043 0.072 0.086 0.11 0.128 0.159 0.183 0.308 0.363 0.44 0.541 0.023 0.029 0.041 0.060 0.064 0.091 0.135 0.188 0.26 0.375 0.365 0.559 0.012 0.019 0.021 0.036 0.029 0.055 0.111 0.195 0.208 0.385 0.289 0.572 0.005 0.008 0.007 0.017 0.010 0.024 1.421 3.315-1.5 5.561-1.5 5.561s-4.324-2.933-11.909-2.933c-7.786 0-19.003 3.092-32.498 15.622-26.644 24.74-10.703 56.508-10.703 56.508-0.389 0-0.52-0.037-0.933-0.077l-4.973-1.847c-3.969-1.475-8.751-4.059-14.215-7.681l-1.615-1.071-1.358-0.95c-12.723-8.892-25.249-20.467-30.043-25.031l-2.097-1.995-15.385 0.591v-14.005l-4.51-1.644c-6.328-2.305-17.466-6.211-20.967-6.467l-0.391-0.029-0.393 0.016c-3.639 0.149-11.373 3.789-13.762 4.955-4.578-1.317-13.334-4.988-17.524-10.694l-0.457-0.623c-0.155-0.988-0.265-2.337-0.262-3.023l0.156-3.235-1.556-1.37c1.759-12.483 7.961-14.587 11.936-14.587zM228.763 167.169c-0.050 1.033 0.278 7.916 2.043 7.974 6.744 9.187 20.293 13.010 21.934 13.441l1.851 0.493 1.714-0.858c4.727-2.363 10.195-4.486 11.594-4.543 2.012 0.149 10.887 3.072 19.123 6.072v16.332l19.611-0.753c5.38 5.12 33.5 27.94 33.955 27.799 1.803 1.195 3.599 2.319 5.377 3.363 1.721 1.012 3.421 1.94 5.086 2.767 0.137 0.069 0.273 0.132 0.411 0.2 0.646 0.315 1.284 0.613 1.919 0.896 0.192 0.085 0.384 0.173 0.575 0.255 0.76 0.329 1.512 0.639 2.25 0.912-0.060 0.587-0.191 1.201-0.359 1.824-0.594 2.185-1.75 4.497-2.762 6.245 6.37 14.625 33.201 76.687 32.269 81.906-0.514 2.885-3.43 7.657-15.132 9.517-0.113-1.152-0.219-2.383-0.317-3.665v-0.019l-0.019-0.257c-0.537-7.119-0.728-14.47-0.785-17.3l-0.001-0.048-0.002-0.048-0.003-0.097v-0.006c-0.014-0.635-0.024-1.168-0.029-1.569v-0.135l-0.002-0.089c-0.002-0.101-0.002-0.188-0.002-0.304v-0.092l-0.002-0.093-0.001-0.041c0.002-0.082 0.003-0.168 0.003-0.257 0-0.139-0.002-0.273-0.008-0.415-0.008-0.213-0.024-0.427-0.050-0.637-0.010-0.091-0.023-0.184-0.036-0.281l-0.053-0.403-0.048-0.181c-0.088-0.416-0.193-0.74-0.243-0.892l-0.171-0.54-0.121-0.236c-0.125-0.288-0.267-0.574-0.426-0.855-0.101-0.183-0.212-0.363-0.334-0.544-0.139-0.211-0.291-0.427-0.439-0.619-0.099-0.131-0.211-0.267-0.332-0.408l-0.015-0.017-0.041-0.048c-0.158-0.182-0.33-0.367-0.513-0.552-0.134-0.138-0.276-0.276-0.447-0.432-0.212-0.193-0.452-0.394-0.675-0.572-0.104-0.084-0.208-0.167-0.327-0.257-0.33-0.249-0.678-0.491-1.032-0.717-0.163-0.107-0.303-0.191-0.4-0.247-0.267-0.165-0.561-0.337-0.909-0.528l-0.16-0.084-0.267-0.144-0.092-0.048c-0.248-0.127-0.505-0.257-0.757-0.38-0.188-0.091-0.369-0.179-0.541-0.257-0.335-0.155-0.696-0.315-1.095-0.483l-0.077-0.034c-0.125-0.055-0.253-0.11-0.387-0.165-0.524-0.219-1.088-0.442-1.709-0.675-2.051-0.765-4.49-1.549-7.247-2.33-2.579-0.729-5.036-1.099-7.305-1.099-5.034 0-8.764 1.756-11.406 4.252l-29.572-3.428 1.785 9.565c-0.18 0.136-0.356 0.277-0.524 0.428-2.075 1.844-3.755 5.164-4.988 9.868-0.050 0.183-0.097 0.365-0.14 0.543-0.526 2.118-1.088 5.163-1.123 8.485-0.169-0.043-0.335-0.084-0.507-0.128l-19.696-66.249-12.022-7.762-15.224 2.115c-13.958-5.075-23.263-16.918-23.263-16.918-1.506 0.721-2.994 1.026-4.431 1.026-7.834 0-14.176-9.060-14.176-9.060-2.853 1.557-5.462 2.176-7.803 2.176-9.107 0.001-14.191-9.369-14.191-9.369-1.819 0.363-3.548 0.524-5.183 0.524-6.629 0-11.691-2.625-14.833-4.894-3.674 3.687-7.816 7.039-12.548 9.872 0 0-45.252 0-58.364-12.692-2.72-4.215-4.228-8.627-5.052-12.488-0.377-1.76-0.607-3.399-0.749-4.856 0-0.002 0-0.003 0-0.005-0.323-3.325-0.171-5.673-0.128-6.204 0.001-0.014 0.001-0.015 0.001-0.025 0.004-0.060 0.009-0.101 0.009-0.101s0.531-1.536 1.648-1.536c0.657 0 1.52 0.543 2.596 2.228 0.163 0.256 0.332 0.546 0.505 0.856 0.037 0.068 0.076 0.145 0.115 0.215 0.143 0.263 0.289 0.546 0.438 0.849 0.037 0.075 0.075 0.153 0.112 0.229 0.161 0.335 0.326 0.693 0.495 1.077 0.026 0.060 0.052 0.118 0.078 0.177 0.195 0.45 0.395 0.93 0.601 1.452 0.001 0.002 0.002 0.005 0.004 0.008 0.594 1.5 1.228 3.284 1.909 5.437 4.677 7.901 10.874 10.628 16.788 10.628 4.028 0 7.909-1.276 11.106-3.029 9.272-1.899 17.784-8.337 23.743-18.118 6.605-10.839 9.637-24.655 8.831-40.058 0.148-1.719 0.243-3.505 0.312-5.325 0.039-1.002 0.080-2.001 0.095-3.034 0.005-0.345 0.001-0.699 0.004-1.047 0.020-3.771-0.107-7.721-0.445-11.912 0 0-0.189-2.454-1.398-5.181-1.452-3.274-4.379-6.943-10.239-7.238-0.090-0.005-0.189-0.007-0.293-0.007-2.076 0-7.064 0.813-7.064 0.813l-0.702-6.411c0.531-0.039 1.135-0.067 1.781-0.084 0.687-0.021 1.425-0.029 2.192-0.029 5.131 0 11.494 0.375 11.494 0.375s0.117 0.053 0.333 0.152c0.060 0.027 0.138 0.064 0.216 0.099 0.002 0.001 0.006 0.002 0.008 0.003 0.157 0.072 0.349 0.16 0.569 0.262 0.033 0.016 0.061 0.029 0.096 0.045 3.346 1.538 13.043 6.026 21.451 10.228 0.024 0.012 0.047 0.023 0.071 0.034 6.653 3.327 12.472 6.462 13.63 7.785 1.059 1.208 2.155 10.574 1.184 23.269l0.387-0.796c0 0 2.875 1.668 7.671 1.668 2.399 0 5.279-0.417 8.521-1.668 1.165-0.449 2.384-0.646 3.627-0.646 5.753 0 12.022 4.225 15.889 7.363 0.645 0.52 1.233 1.019 1.731 1.456zM300.135 287.932c0 0 18.543 7.171 39.421 7.171 4.151 0 8.391-0.284 12.599-0.963l-6.555-13.343-47.579-1.748-0.193-0.124 2.308 9.006zM277.086 198.479l-0.145-6.589-13.177-2.519 1.48 7.205 11.842 1.901zM273.493 214.764l-11.42-2.96-0.847 8.034 12.474 4.651-0.208-9.725zM257 250.29l9.786-10.726-10.721-5.404-9.032 9.575 9.967 6.555zM142.153 156.436l7.357-0.805c0.401-0.043 0.787-0.139 1.169-0.245 0.040 0.541 0.063 1.068 0.093 1.601 0.004 0.075 0.009 0.152 0.012 0.226 0.030 0.56 0.030 1.101 0.048 1.652 0.359 10.551-1.265 19.781-4.268 27.325-3.044 7.648-7.471 13.579-12.587 17.461-3.521 2.672-7.364 4.378-11.309 4.993-0.546 0.084-1.095 0.152-1.644 0.195-0.896 0.071-1.744 0.104-2.544 0.104-9.92 0.001-12.656-5.156-13.304-9.077 0-0.003-0.001-0.007-0.002-0.010-0.053-0.33-0.093-0.649-0.12-0.957-0.001-0.024-0.004-0.048-0.005-0.072-0.025-0.301-0.041-0.591-0.048-0.863 0-0.016 0-0.031 0-0.047-0.010-0.557 0.011-1.046 0.043-1.433 0-0.008 0.001-0.016 0.001-0.024 0.016-0.188 0.033-0.349 0.050-0.485 0.001-0.015 0.004-0.025 0.004-0.040 0.017-0.128 0.032-0.229 0.043-0.3 0.001-0.012 0.001-0.012 0.004-0.022 0.010-0.058 0.017-0.099 0.017-0.099 0.829-3.021 2.039-3.991 3.249-3.991 2.18 0 4.365 3.147 4.365 3.147s1.811 3.259 5.98 3.259c1.499 0 3.303-0.421 5.436-1.565 6.845-4.385 10.18-12.774 11.669-21.668 0.141-0.834 0.269-1.673 0.379-2.514 2.005-0.225 3.805-1.219 5.076-2.798 1.279-1.587 1.858-3.574 1.637-5.592l-0.804-7.354zM339.678 357.821c-0.236-0.793-1.129-0.991-2.384-0.991-1.252 0-2.868 0.198-4.555 0.198-3.37 0-7.017-0.793-8.603-5.551-5.392-1.269-9.832 1.903-16.493-10.468-0.903-0.431-1.613-1.083-2.178-1.881-1.065-1.5-1.592-3.54-1.736-5.78 0-0.002 0-0.002 0-0.002-0.18-2.791 0.217-5.858 0.887-8.559 0.034-0.141 0.070-0.276 0.108-0.411 0.813-3.112 1.952-5.663 2.92-6.523 0.543-0.482 1.81-0.777 3.485-0.945 1.262-0.127 2.748-0.184 4.365-0.184 7.517 0 17.524 1.128 17.524 1.128s0.119-2.207 1.349-4.446c1.267-2.304 3.712-4.642 8.44-4.642 1.555 0 3.353 0.25 5.438 0.84 2.74 0.776 4.943 1.495 6.716 2.156 0.541 0.202 1.036 0.399 1.497 0.592 0.149 0.060 0.277 0.119 0.418 0.178 0.305 0.129 0.598 0.259 0.871 0.384 0.145 0.066 0.277 0.131 0.415 0.197 0.241 0.116 0.467 0.233 0.687 0.344 0.113 0.061 0.226 0.121 0.336 0.18 0.235 0.129 0.452 0.258 0.649 0.381 0.056 0.032 0.123 0.070 0.173 0.105 0.243 0.153 0.459 0.304 0.649 0.448 0.060 0.045 0.108 0.086 0.161 0.129 0.127 0.101 0.248 0.2 0.354 0.297 0.055 0.050 0.106 0.099 0.154 0.149 0.084 0.084 0.164 0.167 0.236 0.25 0.039 0.047 0.080 0.091 0.115 0.136 0.067 0.087 0.125 0.171 0.18 0.252 0.021 0.032 0.046 0.064 0.062 0.097 0.064 0.108 0.115 0.214 0.154 0.312 0.010 0.024 0.014 0.046 0.024 0.067 0.024 0.077 0.050 0.151 0.065 0.223 0.005 0.032 0.008 0.064 0.016 0.094 0.008 0.060 0.019 0.115 0.023 0.166 0.005 0.030 0.007 0.060 0.007 0.088 0.003 0.055 0.003 0.103 0.003 0.154 0 0.084-0.003 0.163-0.003 0.23 0 0.039 0 0.129 0.003 0.252 0 0.015 0 0.034 0 0.049 0 0.115 0 0.263 0.005 0.433 0 0.032 0 0.060 0 0.091 0.005 0.418 0.016 0.987 0.029 1.668 0 0.064 0.005 0.129 0.007 0.193 0.075 3.749 0.287 10.829 0.803 17.675 0 0.017 0 0.035 0.002 0.052 0.104 1.371 0.219 2.731 0.349 4.055 0.249 2.549 0.552 4.945 0.916 7.003 0.308 1.747 0.656 3.252 1.058 4.369 0.452 1.256 1.115 1.763 1.929 1.763h0.001c3.423 0 9.583-9.001 14.513-9.001 1.287 0 2.489 0.615 3.541 2.162 0 0-15.226 15.225-16.812 15.225-1.587 0-23.788 0-23.788 0s-4.13-2.217-5.082-5.389z" horiz-adv-x="439" />
<glyph unicode="&#xe00e;" d="M0 438.857v-36.572l329.143-402.284h109.714v109.713l-402.286 329.143zM365.714 365.714v-91.428h-46.731l119.873-98.077v262.649h-321.016l89.397-73.143zM73.143 73.143v91.428h54.857l-128 156.445v-321.016h262.649l-59.844 73.143z" horiz-adv-x="439" />
<glyph unicode="&#xe00f;" d="M145.739 174.338c-0.627 9.113-49.656-27.925-108.095-47.358-22.078-8.481 2.424-16.988 2.424-16.988s6.712-2.646 17.605-8.032c-3.147-13.188-11.331-41.376-26.712-55.733-10.475-10.019 29.636-34.863 56.478-4.096 12.748 14.611 20.847 22.413 25.819 26.603 4.872-3.445 9.824-7.063 14.854-10.971 18.819-19.433 17.606 15.792 17.606 15.792s0.636 91.683 0.022 100.781zM298.986 311.568c11.884-3.646 94.759 26.419 92.032 31.879-0.738 1.478-6.929 5.742-15.552 11.171 7.805 13.053 25.873 33.456 11.913 52.587-14.577 14.867-44.305-11.532-59.424-24.333-9.966 5.744-17.084 9.756-17.084 9.756-13.349 7.608-11.844-4.552-11.844-4.552s-3.337-73.475-0.041-76.507zM383.055 181.288l-10.287 2.377 3.962 2.358-18.62 15.008c0 0-300.728 205.183-307.060 207.94-6.338 2.786-18.193 0.781-28.087-5.117-9.895-5.901-22.961-7.889-22.961-7.889l338.32-352.757c0 0 50.26-7.897 62.543-2.774 12.28 5.151 9.882 9.864 21.783 41 11.832 31.212 16.209 62.373 16.209 62.373l-55.803 37.48z" horiz-adv-x="439" />
<glyph unicode="&#xe010;" d="M4.234 293.745c2.161-10.12 6.463-23.955 5.543-28.236-0.929-4.292-4.624-9.497-1.847-20.555 2.767-11.048 7.393-12.573 7.393-17.827 0-5.204-6.787-13.474-9.241-16.541-2.475-3.088-3.381-3.401-2.788-17.816 0.627-14.421 0.312-31.611 0.312-31.611s5.241-3.401 8.020-6.781c2.744-3.352 2.744-20.841 2.744-28.223 0-7.358-5.22-18.392-5.22-18.392s-7.997-4.929-7.066-20.903c0.929-15.964 0.905-25.76 1.21-36.511 0.312-10.764-0.917-14.723-1.827-21.813-0.93-7.031 9.529-8.875 11.066-9.487 1.553-0.635 5.553 2.152 9.552-0.31 3.997-2.476 4.309-4.929 9.832-3.389 5.555 1.548 10.16 2.762 13.855 2.762 3.695 0 5.857-1.849 9.853-1.215 3.999 0.613 5.255 1.215 5.255 1.215l5.52 0.303c0 0-2.766 1.247 8.623 0.635 6.568-0.365 8.383-1.223 8.776-1.885 0.72 0.582 3.067 1.25 10.309 1.25 12.935 0-1.222-2.442 12.935-2.752 14.167-0.312 16.621 0 20.933 1.848 4.311 1.841 6.473 3.065 8.936 2.445 2.476-0.603 8.309-0.293 10.761-1.215 2.465-0.927 5.535-3.077 8.31-3.389 2.779-0.312 7.392-0.925 7.392-0.925l6.452-0.305 4.322 1.853c0 0 7.995-15.351 14.155-15.974 6.184-0.613 4.012 5.851 10.773 7.080 6.776 1.225 10.473 0.611 13.541-0.928 3.094-1.55 5.859-2.464 7.393-1.238 1.544 1.238 4.625 2.166 4.625 2.166s-1.232-1.551 4.929-3.392c6.157-1.848 6.439 0.914 12.295 2.765 5.859 1.851 33.261 3.389 43.41 2.776 10.169-0.611 16.315 0.277 24.627 0.277 8.321 0 12.923 0.335 16.305 2.188 3.407 1.803 7.104 3.655 7.104 3.655s0.297-2.464 8.923-3.655c8.623-1.238 13.24-1.238 13.24-1.238s-0.644 0 7.051-1.228c7.716-1.226 25.884-0.925 25.884-0.925l8.31 3.040c0 0-7.692 1.273-2.789 4.627 4.929 3.38 13.252 2.767 13.252 2.767s15.711 0 21.568-4.315c5.836-4.304 10.136-5.505 10.136-5.505l-0.304 179.236c0 0-10.483-1.212-12.019 0-1.533 1.238-0.603 3.992 3.397 6.143 3.997 2.153 2.459 22.396 2.459 22.396s1.235 15.685 1.235 18.114c0 2.466-1.837 10.147-4.301 13.524-2.462 3.355-11.389 14.124-11.389 15.651 0 1.525 0 2.452 0 2.452s2.442 4.003 4.616 6.142c2.136 2.152 3.38 5.53 1.833 7.37-1.522 1.839-2.452 6.131 1.848 7.668 4.311 1.538 11.69 4.002 11.69 4.002s2.173 64.431-1.207 83.481c-3.392 19.019-3.091 21.493-1.555 24.847 1.555 3.389 1.844 3.702 1.844 3.702s2.783 15.352-0.905 17.167c-3.707 1.852-7.097 0.947-10.167 5.24-3.070 4.28-12.623 4.28-15.087 3.99-2.465-0.324-14.455-1.863-16.63-0.637-2.152 1.252-6.45 4.917-9.241 3.691-2.767-1.215-7.38-12.897-10.761-10.432-3.38 2.464-1.546 11.046-6.462 11.37-4.929 0.311-16.925 0.311-24.918 0.311-8.019 0-25.569-0.613-31.103 0.892-5.555 1.55-17.848 3.077-19.7 2.476-1.847-0.624-4.31-4.002-7.087-11.070-2.755-7.033-9.238-6.108-15.097-6.108-5.836 0-5.531 7.369-5.531 7.369s-27.711 5.193-21.237 6.444c6.473 1.215 8.309 3.367 5.856 4.293-2.476 0.924-23.405-1.238-39.712-1.238-16.317 0-23.095 0-27.731 0-4.592 0 3.114-6.743-9.507-8.283-12.62-1.549-15.411 0.012-16.315-2.142-0.931-2.186-15.087-3.4-26.175-3.4-11.085 0-13.852 1.551-13.852 1.551s-1.556 5.204-7.695 5.529c-6.16 0.3-76.662-1.852-76.662-1.852s-18.152 0-20.302 0.601c-2.162 0.636-7.404 0.925-7.404-6.132 0-7.056-1.835-11.669 0.628-16.888 2.464-5.217 2.464-15.328 1.847-30.7-0.616-15.327-4.311-27.287-5.544-38.057-1.23-10.745-0.301-12.875 0.303-22.094 0.628-9.181 1.244-11.667 3.394-21.791zM144.21 82.624l-10.597-2.105-8.463-6.003-33.867-1.536-20.547 16.312-16.631 12.954 7.843 24.13 20.875 49.748 87.096-83.214-25.708-10.287zM273.576 350.231l14.472 0.936 20.603 5.819 19.421 5.831 25.848-17.19 1.548-15.964-2.163-7.981-2.455-5.517-1.243-11.048-3.056-8.596 1.511-13.8-9.531 0.601-78.496 60.151c-0.3-0.3 13.539 6.757 13.539 6.757zM64.881 361.288c7.692 4.592 16.921 6.144 21.847 3.978 4.928-2.138 14.154-9.52 19.386-13.186 5.24-3.679 23.092-16.888 23.092-16.888l3.080-7.068c0 0 3.383 0.613 12.308-4.303 8.939-4.894 61.587-40.197 61.587-40.197l119.409-80.118 14.483-11.671-3.072-1.829 7.995-1.853 43.408-29.149c0 0-3.404-24.245-12.611-48.528-9.252-24.221-7.392-27.885-16.943-31.892-9.555-3.988-48.649 2.153-48.649 2.153l-53.861 55.247-5.238 6.729-3.684 5.868-12.322 9.173-4.925 5.55-13.542 11.975-4.011 5.817-2.162 4.293-7.971 7.091-5.858 5.505-38.792 42.363-25.244 23.933-16.608 18.727-3.080 1.239-0.314 3.678-65.572 67.219c0 0.001 10.168 1.55 17.865 6.143z" horiz-adv-x="439" />
<glyph unicode="&#xe011;" d="M384 438.857h-329.143c-30.172 0-54.857-24.685-54.857-54.857v-329.143c0-30.171 24.686-54.857 54.857-54.857h329.143c30.171 0 54.857 24.685 54.857 54.857v329.143c0 30.171-24.685 54.857-54.857 54.857zM402.286 64c0-15.086-12.343-27.428-27.428-27.428h-310.857c-15.085 0-27.428 12.343-27.428 27.428v54.857c0 15.086 12.343 27.428 27.428 27.428h310.857c15.086 0 27.428-12.343 27.428-27.428v-54.857zM237.714 182.857v109.714h18.286l-36.572 73.143-36.572-73.143h18.286v-96l-128.005 96.005c33.361 44.411 86.469 73.138 146.291 73.138 100.988 0 182.857-81.868 182.857-182.857h-164.571zM54.857 91.429c0-20.198 16.374-36.572 36.572-36.572s36.572 16.373 36.572 36.572c0 20.198-16.374 36.572-36.572 36.572-20.198 0-36.572-16.373-36.572-36.572zM370.286 128h-237.978c8.689-9.705 13.978-22.517 13.978-36.568 0-14.055-5.291-26.868-13.98-36.575h237.98c7.543 0 13.714 6.171 13.714 13.714v45.714c0 7.543-6.171 13.714-13.714 13.714z" horiz-adv-x="439" />
<glyph unicode="&#xe012;" d="M426.31 249.906l-139.805 139.805 59.563-131.039c9.82-21.613 9.82-56.95 0-78.577l-59.505-130.935 139.746 139.747c16.753 16.774 16.753 44.212 0 60.999zM309.496 258.673l-72.177 158.785c-8.583 18.88-26.281 24.275-41.792 14.153-2.319-1.552-4.553-3.341-6.596-5.399l-176.35-176.349c-3.639-3.637-6.486-7.776-8.547-12.196h311.435c-1.205 7.685-3.197 14.895-5.973 21.006zM315.466 201.096h-311.466c2.064-4.449 4.924-8.613 8.581-12.276l176.35-176.351c2.043-2.019 4.278-3.829 6.596-5.352 15.511-10.070 33.21-4.678 41.792 14.163l72.176 158.816c2.775 6.112 4.765 13.317 5.971 21z" horiz-adv-x="439" />
<glyph unicode="&#xe013;" d="M409.432 329.572c-19.617 33.62-46.238 60.238-79.856 79.857s-70.332 29.428-110.143 29.428c-39.809 0-76.523-9.809-110.143-29.428s-60.237-46.238-79.857-79.857-29.428-70.333-29.428-110.143c0-39.81 9.809-76.524 29.428-110.142 19.62-33.62 46.237-60.239 79.857-79.856 33.62-19.62 70.334-29.431 110.143-29.431 39.811 0 76.525 9.81 110.143 29.431 33.618 19.617 60.239 46.236 79.856 79.856 19.62 33.618 29.43 70.332 29.43 110.142 0 39.809-9.81 76.524-29.43 110.143zM387.72 148.428c-9.716-22.569-22.714-42-39-58.286s-35.716-29.284-58.284-39c-22.574-9.711-46.241-14.572-71.002-14.572-24.762 0-48.428 4.861-71 14.572-22.573 9.716-42 22.714-58.285 39-16.285 16.286-29.285 35.716-39 58.286-9.715 22.574-14.572 46.24-14.572 71.001s4.857 48.429 14.572 71 22.715 42 39 58.286c16.285 16.286 35.713 29.286 58.285 39 22.572 9.714 46.238 14.572 71 14.572 24.761 0 48.428-4.857 71.002-14.572 22.568-9.714 41.999-22.714 58.284-39s29.284-35.714 39-58.286c9.712-22.571 14.572-46.239 14.572-71s-4.861-48.427-14.572-71.001zM348.933 337.381h-9.331v1.798h-3.593v-1.798h-20.075v5.984h-4.596v10.517h-2.332v-11.151l0.003-1.797h-2.407v3.512c0 0-47.759-0.040-70.5-0.040v2.695h-3.51l-0.081 5.555-3.564 0.032c0 0 0.040-7.099-2.352-8.235-6.081 0.592-7.647-3.332-14.113-2.352 0.941 4.080-1.756 4.521-1.179 8.233 1.013 3.299 6.125 2.501 8.234 4.707 3.197 8.617-1.529 15.456-2.353 23.524-16.088 15.423-44.044 9.912-47.052-12.939-0.901-6.833 3.066-13.98 0-18.82-25.584 10.772-39.735-23.534-34.114-51.756-3.728-1.764-10.388-0.592-14.117-2.356 0.332-12.483-2.359-21.947-2.352-34.111 3.967-0.346 8.035-0.591 10.589-2.353-13.971-2.84-3.749-25.142-4.707-36.464-9.303-6.134-5.019-16.931-2.352-27.056-5.966-12.82-1.416-23.116-3.529-35.289-1.9-10.952-12.849-18.685-16.468-29.407-1.138-3.376-0.001-8.127-1.177-11.764-1.545-4.781-5.291-7.572-5.881-11.764-0.561-3.995 2.329-6.524 2.353-10.584 0.073-12.979-12.593-25.355-7.057-41.171 7.278-1.538 16.249-1.538 23.526 0-1.223 12.582-5.072 36.607 9.41 42.348 1.816 14.649 12.73 20.208 10.587 38.818 16.037 14.149 18.719 41.663 31.76 58.813 3.368-3.297 2.839-10.491 11.761-8.232 5.412-9.489 11.841-17.957 17.645-27.057 4.317-1.539 8.064-0.153 10.588-1.175 6.151-6.024-1.729-14.225-2.356-21.173-0.992-11.038 4.996-22.82 7.060-35.289 2.651-16.029-3.883-27.012-3.529-38.816 15.815-1.111 33.799-6.11 50.579-2.353 1.111 9.731-7.243 10.009-14.115 11.762-26.96 19.892 5.575 72.759-12.937 101.163-3.567 25.905-26.62 38.382-28.233 62.34 4.361 0.836 5.049-2.008 9.412-1.175 4.716 11.117 11.267 39.857-1.179 47.052-0.852 3.599 2.030 3.46 1.179 7.056 11.364-4.727 21.571-15.38 34.111-12.938 14.865 2.899 11.814 21.127 22.345 29.407-2.58 3.691-1.488 11.056-3.524 15.293 2.317 4.108 2.661 0.702 10.585 10.587l30.603 0.007v3.921c0 0 0.781 0.42 2.404 0.776v-1.031h6.928v1.031h20.075v-1.796h3.593v1.796h9.331v3.512zM243.067 306.813c-3.82 0.886-1.819 7.593-5.881 8.235 0.935 4.94 10.677 3.327 7.057 9.411 2.675 0.57 6.009 2.333 8.233 0 0.681-9.697-6.225-11.81-9.409-17.646z" horiz-adv-x="439" />
<glyph unicode="&#xe014;" d="M219.429 345.736c-72.442 0-90.669-68.358-90.669-126.31 0-57.961 18.215-126.306 90.669-126.306 72.442 0 90.656 68.345 90.656 126.307 0 57.952-18.214 126.31-90.656 126.31zM219.429 298.11c2.946 0 5.625-0.455 8.143-1.084 5.223-4.493 7.768-10.7 2.766-19.353l-48.248-88.658c-1.48 11.211-1.688 22.219-1.688 30.418 0 25.521 1.769 78.678 39.028 78.678zM255.536 257.236c2.558-13.607 2.92-27.817 2.92-37.809 0-25.524-1.768-78.68-39.013-78.68-2.933 0-5.639 0.308-8.143 0.925-0.482 0.147-0.924 0.295-1.393 0.469-0.763 0.215-1.573 0.455-2.304 0.75-8.291 3.536-13.513 9.911-5.987 21.215l53.92 93.132zM218.974 438.857c-60.872 0-112.18-21.188-153.98-63.772-21.161-21.171-37.319-45.308-48.563-72.221-10.969-26.651-16.433-54.442-16.433-83.438 0-29.26 5.464-57.050 16.433-83.435 10.976-26.397 26.892-50.144 47.792-71.291 21.154-20.906 44.906-37.019 71.297-48.255 26.651-10.981 54.442-16.447 83.451-16.447 28.995 0 57.188 5.665 84.361 16.901 27.168 11.25 51.404 27.389 72.832 48.563 20.644 20.116 36.267 43.18 46.707 69.296 10.707 26.384 15.984 54.616 15.984 84.666 0 29.779-5.276 57.971-15.977 84.363-10.714 26.639-26.384 50.196-47.023 70.835-43.111 42.846-95.504 64.235-156.883 64.235zM219.885 399.367c49.635 0 91.969-17.597 127.233-52.861 16.981-16.988 30-36.409 38.88-58.093 8.885-21.683 13.365-44.691 13.365-68.987 0-50.421-17.25-92.26-51.469-125.69-17.772-17.25-37.729-30.496-59.933-39.644-21.944-9.147-44.558-13.675-68.076-13.675-23.773 0-46.541 4.473-68.217 13.353-21.69 9.147-41.15 22.206-58.4 39.201-17.243 17.238-30.549 36.711-39.951 58.394-9.133 21.937-13.828 44.558-13.828 68.072 0 23.772 4.694 46.541 13.828 68.224 9.402 21.937 22.714 41.652 39.951 59.163 34.217 34.994 76.458 52.541 126.616 52.541z" horiz-adv-x="439" />
<glyph unicode="&#xe015;" d="M219.040 438.857c61.379 0 113.357-21.291 155.946-63.871 42.563-42.321 63.871-94.171 63.871-155.558 0-61.4-20.906-112.848-62.705-154.38-44.143-43.365-96.522-65.049-157.112-65.049-59.309 0-110.766 21.548-154.383 64.661-43.099 43.091-64.657 94.675-64.657 154.761 0 59.82 21.559 111.669 64.657 155.551 42.576 42.593 94.037 63.885 154.383 63.885zM219.817 399.281c-49.892 0-92.076-17.639-126.559-52.901-35.797-36.321-53.685-78.637-53.685-126.951 0-48.857 17.759-90.904 53.28-126.173 35.528-35.531 77.843-53.284 126.951-53.284 48.843 0 91.433 17.885 127.74 53.679 34.487 33.435 51.724 75.356 51.724 125.779 0 50.143-17.504 92.464-52.5 126.951-34.74 35.276-77.061 52.901-126.95 52.901zM309.161 282.12c3.389 0 6.267-1.166 8.611-3.515 2.358-2.351 3.536-5.23 3.536-8.625v-161.431c0-3.396-1.178-6.267-3.536-8.611-2.344-2.358-5.223-3.536-8.611-3.536h-119.512c-3.403 0-6.268 1.166-8.629 3.536-2.357 2.351-3.525 5.216-3.525 8.611v47.813h-47.799c-3.408 0-6.275 1.166-8.625 3.522-2.347 2.344-3.525 5.216-3.525 8.625v161.417c0 3.141 1.034 5.813 3.141 8.029 2.076 2.211 4.697 3.589 7.832 4.112h120.675c3.388 0 6.268-1.172 8.632-3.523 2.344-2.344 3.522-5.236 3.522-8.625v-47.813l47.813 0.014zM141.449 180.248h36.047v89.733c0 3.133 1.037 5.805 3.141 8.029 2.085 2.21 4.573 3.589 7.44 4.112h49.373v35.659h-96v-137.531zM297.402 258.228h-96v-137.545h96v137.545z" horiz-adv-x="439" />
<glyph unicode="&#xe016;" d="M219.041 438.848c61.377 0 113.352-21.291 155.94-63.871 42.56-42.32 63.868-94.165 63.868-155.548 0-61.397-20.906-112.842-62.703-154.373-44.14-43.365-96.519-65.047-157.104-65.047-59.309 0-110.761 21.548-154.376 64.659-43.096 43.089-64.655 94.671-64.655 154.755 0 59.813 21.559 111.665 64.655 155.548 42.572 42.587 94.032 63.877 154.375 63.877zM219.816 399.27c-49.889 0-92.072-17.635-126.553-52.9-35.793-36.316-53.682-78.628-53.682-126.941 0-48.855 17.758-90.899 53.277-126.168 35.525-35.531 77.839-53.283 126.945-53.283 48.842 0 91.43 17.885 127.736 53.678 34.486 33.433 51.721 75.352 51.721 125.774 0 50.144-17.503 92.464-52.498 126.942-34.74 35.277-77.060 52.899-126.947 52.899zM121.863 250.389c4.175 26.905 15.009 47.737 32.517 62.492 17.499 14.759 38.781 22.133 63.864 22.133 34.465 0 61.905-11.108 82.282-33.296 20.369-22.201 30.56-50.68 30.56-85.416 0-33.702-10.579-61.711-31.726-84.036-21.18-22.325-48.594-33.5-82.303-33.5-24.809 0-46.231 7.432-64.249 22.332-18.030 14.892-28.861 36.045-32.523 63.472h55.26c1.303-26.651 17.367-39.969 48.196-39.969 15.403 0 27.816 6.661 37.217 19.981 9.413 13.317 14.121 31.091 14.121 53.284 0 23.252-4.319 40.944-12.929 53.094-8.626 12.143-21.020 18.216-37.231 18.216-29.263 0-45.714-12.923-49.368-38.781h16.060l-43.481-43.496-43.495 43.496 17.228-0.005z" horiz-adv-x="439" />
<glyph unicode="&#xe017;" d="M219.040 438.856c61.379 0 113.357-21.292 155.945-63.875 42.563-42.321 63.871-94.168 63.871-155.553 0-61.4-20.906-112.847-62.705-154.379-44.143-43.365-96.521-65.049-157.111-65.049-59.31 0-110.766 21.548-154.379 64.661-43.099 43.091-64.66 94.673-64.66 154.76 0 59.815 21.563 111.668 64.66 155.553 42.576 42.589 94.031 63.881 154.379 63.881zM219.817 399.277c-49.888 0-92.076-17.635-126.561-52.901-35.793-36.317-53.679-78.632-53.679-126.947 0-48.857 17.759-90.903 53.276-126.173 35.531-35.531 77.838-53.284 126.95-53.284 48.844 0 91.432 17.885 127.74 53.679 34.487 33.435 51.724 75.353 51.724 125.777 0 50.147-17.504 92.467-52.5 126.947-34.74 35.279-77.060 52.9-126.948 52.9zM362.837 215.504l4.312-1.955v-61.909l-3.925-1.949-53.284-22.727-2.351-0.789-2.745 0.777-118.727 48.983-56.813-23.511-56.035 24.295v56.424l52.505 21.951-0.388 0.388v61.915l59.565 26.25 134.396-55.641v-54.462l43.488-18.040zM300.535 143.424v38.772h-0.389v1.574l-100.707 41.143v-39.977l100.707-41.538v0.396l0.389-0.369zM307.191 194.351l35.276 14.498-32.524 13.714-34.486-14.498 31.733-13.714zM353.437 160.647v38.002l-39.188-16.452v-38.404l39.188 16.855z" horiz-adv-x="439" />
<glyph unicode="&#xe018;" d="M219.040 438.856c61.379 0 113.357-21.292 155.945-63.875 42.563-42.321 63.871-94.168 63.871-155.553 0-61.4-20.906-112.847-62.705-154.379-44.143-43.365-96.521-65.049-157.111-65.049-59.31 0-110.766 21.548-154.379 64.661-43.099 43.091-64.66 94.673-64.66 154.76 0 59.815 21.563 111.668 64.66 155.553 42.576 42.589 94.031 63.881 154.379 63.881zM219.817 399.277c-49.888 0-92.076-17.635-126.561-52.901-35.793-36.317-53.679-78.632-53.679-126.947 0-48.857 17.759-90.903 53.276-126.173 35.531-35.531 77.838-53.284 126.95-53.284 48.844 0 91.432 17.885 127.74 53.679 34.487 33.435 51.724 75.353 51.724 125.777 0 50.147-17.504 92.467-52.5 126.947-34.74 35.279-77.060 52.9-126.948 52.9zM302.504 271.159v-37.613h-159.481v37.613h159.481zM302.504 200.618v-37.6h-159.481v37.6h159.481z" horiz-adv-x="439" />
<glyph unicode="&#xe019;" d="M375.139 375.23c-42.488 42.418-94.465 63.627-155.999 63.627-60.77 0-112.224-21.208-154.317-63.627-43.219-43.895-64.822-95.822-64.822-155.801 0-59.974 21.602-111.548 64.822-154.7 43.192-43.152 94.64-64.728 154.317-64.728 60.422 0 112.794 21.757 157.090 65.276 41.752 41.324 62.625 92.718 62.625 154.151 0 61.439-21.241 113.377-63.716 155.801zM347.664 93.805c-36.254-35.839-78.909-53.752-127.961-53.752-49.072 0-91.365 17.738-126.876 53.216-35.517 35.465-53.276 77.524-53.276 126.16 0 18.709 2.685 36.465 7.981 53.327l112.339-50.019h-24.715v-34.159h51.401l5.029-10.426v-16.553h-56.429v-34.151h56.429v-49.607h54.602v49.607h56.786v31.565l71.637-31.901c-7.341-11.925-16.313-23.036-26.947-33.308zM297.168 161.598h-50.967v16.553l2.571 4.988 48.395-21.541zM302.974 207.026v15.709h-34.139l55.714 102.642h-58.232l-38.363-84.951-20.363 9.067-35.056 75.884h-58.224l24.161-45.108-72.449 32.263c7.534 11.936 16.621 23.334 27.349 34.168 34.426 35.108 76.519 52.664 126.334 52.664 49.781 0 92.082-17.555 126.87-52.664 35.149-34.744 52.721-77.162 52.721-127.275 0-18.563-2.344-35.94-7.005-52.166l-89.317 39.765z" horiz-adv-x="439" />
<glyph unicode="&#xe01a;" d="M375.12 375.23c-42.469 42.418-94.472 63.627-155.972 63.627-60.79 0-112.231-21.195-154.339-63.627-43.218-43.895-64.808-95.815-64.808-155.801 0-59.967 21.59-111.535 64.808-154.687 43.204-43.166 94.64-64.74 154.339-64.74 60.403 0 112.767 21.77 157.077 65.291 41.752 41.324 62.632 92.704 62.632 154.137-0.007 61.445-21.255 113.389-63.736 155.801zM347.651 93.805c-36.248-35.833-78.909-53.738-127.954-53.738-49.072 0-91.373 17.738-126.882 53.216-35.517 35.476-53.276 77.531-53.276 126.153 0 20.572 3.241 40.024 9.663 58.352l58.145-25.74h-4.192v-26.075h20.577c0-3.69-0.368-7.359-0.368-11.025v-6.255h-20.209v-26.079h23.865c3.314-19.473 10.668-35.276 20.572-47.759 20.571-27.187 53.639-41.865 89.639-41.865 23.517 0 44.792 6.971 57.3 13.955l-8.825 40.76c-7.714-4.038-24.971-9.543-41.859-9.543-18.375 0-35.625 5.504-47.384 18.731-5.504 6.241-9.548 14.699-12.12 25.714h79.861l113.476-50.229c-7.849-13.916-17.827-26.785-30.029-38.572zM204.937 208.697l-0.482 0.372 0.831-0.372h-0.349zM273.267 225.977h3.281v26.075h-62.197l-25.265 11.18c2.176 4.888 4.748 9.264 7.755 12.683 11.391 13.981 27.543 19.851 45.18 19.851 16.166 0 31.219-4.772 40.768-8.809l10.286 41.882c-13.232 5.863-32.692 11.006-55.099 11.006-34.527 0-63.917-13.956-84.857-37.459-4.647-5.37-8.679-11.398-12.335-17.769l-72.16 31.935c6.991 10.483 15.215 20.551 24.743 30.157 34.425 35.108 76.519 52.67 126.333 52.67 49.781 0 92.081-17.555 126.87-52.67 35.136-34.738 52.707-77.156 52.707-127.282 0-16.507-1.861-32.075-5.565-46.768l-120.447 53.319z" horiz-adv-x="439" />
<glyph unicode="&#xe01b;" d="M219.028 438.856c61.647 0 113.639-21.155 155.959-63.469 42.563-42.321 63.871-94.305 63.871-155.959 0-61.661-20.899-112.981-62.705-153.996-44.404-43.627-96.783-65.431-157.124-65.431-59.558 0-111.013 21.683-154.368 65.036-43.1 43.112-64.659 94.565-64.659 154.392 0 60.084 21.559 112.064 64.657 155.952 42.315 42.315 93.77 63.475 154.369 63.475zM49.373 278.591c-6.529-18.019-9.8-37.748-9.8-59.169 0-48.589 17.759-90.648 53.28-126.167 35.786-35.276 78.111-52.909 126.951-52.909 49.379 0 91.948 17.885 127.754 53.685 12.796 12.274 22.847 25.077 30.153 38.411l-82.666 36.829c-2.892-13.848-9.871-25.139-20.96-33.882-11.129-8.752-24.241-13.794-39.388-15.087v-33.703h-25.473v33.703c-24.295 0.248-46.503 8.993-66.609 26.243l30.173 30.563c14.357-13.319 30.689-19.976 48.977-19.976 7.573 0 14.042 1.688 19.405 5.096 5.351 3.389 8.036 8.993 8.036 16.848 0 5.491-1.963 9.925-5.886 13.325l-21.148 9.014-25.862 11.759-34.874 15.284-112.064 50.132zM219.817 399.676c-49.892 0-92.076-17.632-126.559-52.895-8.627-8.628-16.724-18.421-24.293-29.397l83.856-37.613c3.653 11.495 10.573 20.702 20.769 27.623 10.175 6.917 22.067 10.772 35.661 11.561v33.703h25.473v-33.703c20.117-1.051 38.397-7.837 54.857-20.373l-28.607-29.389c-12.295 8.62-24.817 12.927-37.62 12.927-6.797 0-12.871-1.31-18.215-3.917-5.357-2.612-8.036-7.053-8.036-13.322 0-1.832 0.649-3.656 1.956-5.485l47.023-21.167 35.263-15.67 112.439-50.149c3.67 15.415 5.498 31.077 5.498 47.016 0 50.421-17.504 92.865-52.5 127.359-34.75 35.263-77.084 52.895-126.966 52.895z" horiz-adv-x="439" />
<glyph unicode="&#xe01c;" d="M219.040 438.856c61.633 0 113.624-21.155 155.944-63.476 42.563-42.582 63.871-94.567 63.871-155.952 0-61.654-20.905-112.981-62.704-153.981-44.411-43.627-96.776-65.445-157.111-65.445-59.31 0-110.764 21.563-154.381 64.661-43.097 43.104-64.656 94.685-64.656 154.765 0 60.073 21.559 112.057 64.657 155.945 42.32 42.328 93.769 63.483 154.38 63.483zM219.817 399.277c-49.892 0-92.075-17.507-126.558-52.505-35.795-36.576-53.684-79.027-53.684-127.348 0-48.589 17.759-90.648 53.28-126.153 35.527-35.538 77.841-53.291 126.95-53.291 48.844 0 91.433 17.88 127.74 53.679 34.486 33.173 51.723 75.092 51.723 125.779 0 49.892-17.504 92.33-52.5 127.345-34.995 34.995-77.315 52.495-126.95 52.495zM278.599 273.894v-89.728h-25.072v-106.565h-68.183v106.565h-25.071v89.728c0 3.924 1.373 7.249 4.108 9.992 2.749 2.735 6.080 4.115 9.991 4.115h90.129c3.651 0 6.925-1.373 9.791-4.115 2.858-2.743 4.307-6.075 4.307-9.992zM188.859 330.313c0 20.628 10.186 30.954 30.569 30.954 20.384 0 30.563-10.312 30.563-30.954 0-20.37-10.192-30.563-30.563-30.563s-30.569 10.193-30.569 30.563z" horiz-adv-x="439" />
<glyph unicode="&#xe01d;" d="M219.033 438.857c61.377 0 113.636-21.428 156.735-64.267 20.627-20.632 36.308-44.214 47.009-70.725 10.714-26.514 16.084-54.661 16.084-84.44 0-30.039-5.301-58.19-15.868-84.425-10.584-26.25-26.197-49.445-46.827-69.563-21.413-21.149-45.707-37.355-72.881-48.592-27.161-11.223-55.245-16.846-84.239-16.846-28.995 0-56.752 5.545-83.271 16.661-26.507 11.087-50.285 27.161-71.314 48.187-21.031 21.027-37.028 44.735-48 71.118-10.973 26.387-16.457 54.201-16.457 83.462 0 29 5.548 56.881 16.651 83.659 11.101 26.777 27.236 50.743 48.389 71.904 41.795 42.572 93.121 63.868 153.988 63.868zM219.824 399.278c-50.151 0-92.345-17.507-126.568-52.507-17.246-17.504-30.502-37.159-39.773-58.97-9.285-21.813-13.913-44.608-13.913-68.38 0-23.517 4.629-46.169 13.913-67.973 9.279-21.832 22.527-41.291 39.772-58.395 17.237-17.115 36.692-30.173 58.388-39.185 21.675-9.016 44.407-13.527 68.18-13.527 23.5 0 46.284 4.565 68.38 13.712 22.087 9.149 41.971 22.341 59.759 39.577 34.207 33.43 51.31 75.365 51.31 125.784 0 24.295-4.433 47.28-13.312 68.964-8.868 21.68-21.818 41.007-38.772 57.999-35.291 35.267-77.733 52.901-127.363 52.901zM217.077 255.858l-29.398-15.284c-3.142 6.522-6.987 11.101-11.554 13.714-4.572 2.604-8.819 3.917-12.739 3.917-19.585 0-29.391-12.928-29.391-38.793 0-11.753 2.481-21.143 7.44-28.202 4.965-7.060 12.281-10.596 21.951-10.596 12.801 0 21.81 6.284 27.041 18.819l27.033-13.714c-5.745-10.716-13.714-19.139-23.9-25.274-10.177-6.147-21.418-9.214-33.7-9.214-19.591 0-35.404 6.001-47.417 18.029-12.015 12.012-18.020 28.727-18.020 50.145 0 20.9 6.073 37.481 18.219 49.762 12.143 12.275 27.492 18.418 46.048 18.418 27.169 0.015 46.63-10.565 58.388-31.727zM343.637 255.858l-28.995-15.284c-3.132 6.522-7.005 11.101-11.559 13.714-4.593 2.604-8.974 3.917-13.123 3.917-19.593 0-29.399-12.928-29.399-38.793 0-11.753 2.476-21.143 7.447-28.202 4.955-7.060 12.267-10.596 21.952-10.596 12.774 0 21.803 6.284 27.014 18.819l27.428-13.714c-6.001-10.716-14.101-19.139-24.28-25.274-10.182-6.147-21.281-9.214-33.297-9.214-19.861 0-35.72 6.001-47.597 18.029-11.906 12.012-17.841 28.727-17.841 50.145 0 20.9 6.070 37.481 18.217 49.762 12.147 12.275 27.495 18.418 46.029 18.418 27.171 0.015 46.513-10.565 58.004-31.727z" horiz-adv-x="439" />
<glyph unicode="&#xe01e;" d="M146.286 402.286l-146.286-146.286 146.286-219.428h365.714v365.714h-365.714zM436.070 312.853c-5.707 1.745-12.071 2.644-19.036 2.644-8.772 0-15.529-2.939-20.288-8.805-4.768-5.851-7.143-13.883-7.143-24.099v-9.459h37.731v-43.109h-37.353v-141.827h-59.057v141.82l-63.993-0.008v-65.050c0-12.238 1.813-20.833 5.431-25.801 3.618-4.986 9.56-7.471 17.82-7.471 7.613 0 13.565 0.622 17.895 1.888l0.387-44.243c-9.274-3.526-22.099-5.288-38.5-5.288-17.744 0-32.308 5.255-43.589 15.788-11.306 10.517-16.981 29.084-16.981 55.683v74.493h-25.139v43.109h25.139v34.8l57.538 15.503v-50.303l63.993 0.017v6.799c0 15.511 3.105 29.814 9.334 42.925 6.228 13.111 15.402 22.851 27.531 29.21 12.112 6.372 25.239 9.56 39.324 9.56 10.181 0 20.464-1.26 30.872-3.777l-1.913-44.999z" />
<glyph unicode="&#xe01f;" d="M179.036 86.475v-22.998c0-8.479-5.881-11.738-13.070-7.247l-105.722 66.075c-7.188 4.495-7.188 11.842 0 16.339l105.722 66.075c7.189 4.491 13.070 1.231 13.070-7.245v-23h259.82v184.383c0 45.257-37.029 82.286-82.286 82.286h-274.286c-45.257 0-82.285-37.028-82.285-82.286v-1.714h259.825v23c0 8.477 5.881 11.736 13.070 7.245l105.723-66.075c7.188-4.495 7.188-11.845 0-16.339l-105.722-66.076c-7.188-4.493-13.070-1.232-13.070 7.245v22.997h-259.825v-184.571c0-45.257 37.029-82.286 82.285-82.286h274.286c45.257 0 82.286 37.029 82.286 82.286v1.904h-259.82z" horiz-adv-x="439" />
<glyph unicode="&#xe020;" d="M445.976 329.559c-19.616 33.615-46.232 60.231-79.847 79.847-33.613 19.617-70.323 29.425-110.128 29.425-39.804 0-76.514-9.808-110.129-29.425s-60.231-46.233-79.847-79.847-29.425-70.325-29.425-110.13 9.808-76.514 29.425-110.128c19.617-33.615 46.232-60.232 79.847-79.847s70.323-29.425 110.129-29.425c39.805 0 76.514 9.809 110.128 29.425 33.615 19.616 60.232 46.232 79.847 79.847 19.616 33.613 29.425 70.324 29.425 110.128s-9.809 76.514-29.425 110.13zM365.733 91.445c0-10.056-8.228-18.284-18.284-18.284h-37.129c0 9.856-2.428 18.944-7.286 27.264-4.853 8.324-11.448 14.914-19.768 19.771s-17.408 7.284-27.265 7.284c-9.856 0-18.944-2.43-27.267-7.284s-14.912-11.447-19.768-19.77c-4.855-8.32-7.285-17.408-7.285-27.264h-37.069c-10.056 0-18.284 8.228-18.284 18.284v255.969c0 10.056 8.227 18.284 18.284 18.284h37.097c0-9.857 2.429-18.945 7.285-27.265s11.445-14.913 19.768-19.769c8.323-4.856 17.411-7.285 27.267-7.285 9.857 0 18.945 2.429 27.265 7.285 8.32 4.855 14.914 11.449 19.768 19.769 4.857 8.32 7.286 17.408 7.286 27.265h37.101c10.056 0 18.284-8.228 18.284-18.284v-255.969z" />
<glyph unicode="&#xe021;" d="M16.656 219.729l39.925-219.7h398.909l39.856 219.7c-99.722 105.976-378.953 105.976-478.69 0zM367.505 164.349l-50.219-48.971 11.897-69.173c0.094-0.646 0.14-1.57 0.14-2.767 0-1.94-0.486-3.576-1.454-4.913-0.968-1.339-2.375-2.005-4.221-2.005-1.751 0-3.596 0.555-5.533 1.661l-62.115 32.647-62.115-32.647c-2.031-1.106-3.873-1.661-5.532-1.661-1.937 0-3.391 0.668-4.359 2.005-0.968 1.339-1.453 2.974-1.453 4.913 0 0.55 0.095 1.476 0.279 2.767l11.897 69.173-50.357 48.971c-2.306 2.491-3.459 4.702-3.459 6.639 0 3.416 2.582 5.537 7.749 6.367l69.448 10.099 31.125 62.947c1.756 3.783 4.015 5.671 6.781 5.671s5.024-1.889 6.781-5.671l31.125-62.947 69.448-10.099c5.166-0.831 7.748-2.952 7.748-6.367-0.003-2.026-1.204-4.243-3.599-6.639zM453.257 292.602c-25.654 84.625-104.26 146.227-197.253 146.227-93.005 0-171.609-61.603-197.262-146.231 104.764 61.978 289.757 61.98 394.515 0.004z" />
<glyph unicode="&#xe022;" d="M256.032 239.953c-9.085 0-16.479-7.304-16.479-16.289 0-8.979 7.393-16.287 16.479-16.287 9.087 0 16.476 7.308 16.476 16.287 0 8.985-7.389 16.289-16.476 16.289zM16.656 219.729l39.925-219.7h398.909l39.856 219.7c-99.722 105.976-378.953 105.976-478.69 0zM341.166 90.646c-27.463-38.009-82.389-54.298-82.389-54.298h-5.492c0 0-54.925 16.289-82.388 54.298-5.493 27.145 0 54.293 0 54.293s27.462-16.287 27.462-43.438c19.025-15.672 34.349-22.277 43.94-25.072v90.228l-49.435 5.43v21.716l50.321-0.136c-11.807 4.962-20.109 16.537-20.109 29.999 0 17.964 14.783 32.579 32.954 32.579s32.956-14.615 32.956-32.579c0-13.523-8.383-25.145-20.287-30.064l50.493-0.137v-21.377l-49.433-5.43v-90.228c9.592 2.796 24.916 9.401 43.942 25.072 0 27.151 27.463 43.438 27.463 43.438s5.493-27.149 0.001-54.293zM453.257 292.602c-25.654 84.625-104.26 146.227-197.253 146.227-93.005 0-171.609-61.603-197.262-146.231 104.764 61.978 289.757 61.98 394.515 0.004z" />
<glyph unicode="&#xe023;" d="M445.976 329.559c-19.616 33.615-46.232 60.231-79.847 79.847-33.613 19.617-70.323 29.425-110.128 29.425-39.804 0-76.514-9.808-110.129-29.425s-60.231-46.233-79.847-79.847-29.425-70.325-29.425-110.13 9.808-76.514 29.425-110.128c0.28-0.48 0.575-0.943 0.859-1.42l90.912 90.912c-7.633 17.865-11.463 36.929-11.463 57.203 0 26.536 6.538 51.011 19.617 73.42s30.821 40.154 53.231 53.231 46.88 19.616 73.419 19.616c5.467 0 10.842-0.293 16.135-0.849l-99.060-99.060 129.284-129.284 99.060 99.060c0.555-5.292 0.849-10.666 0.849-16.134 0-26.536-6.539-51.010-19.617-73.418-13.077-22.411-30.822-40.156-53.231-53.231-22.409-13.077-46.882-19.617-73.418-19.617-20.291 0-39.369 3.837-57.245 11.483l-90.899-90.899c0.476-0.284 0.94-0.579 1.419-0.858 33.615-19.616 70.323-29.425 110.129-29.425 39.805 0 76.514 9.809 110.128 29.425 33.615 19.616 60.232 46.232 79.847 79.847 19.616 33.613 29.425 70.324 29.425 110.128s-9.812 76.513-29.428 110.129z" />
<glyph unicode="&#xe024;" d="M408.856 329.572c-19.618 33.62-46.238 60.238-79.857 79.857-33.618 19.62-70.332 29.428-110.142 29.428-39.809 0-76.524-9.809-110.143-29.428s-60.237-46.239-79.856-79.857-29.428-70.333-29.428-110.143 9.809-76.524 29.428-110.142c19.62-33.62 46.237-60.239 79.857-79.857s70.332-29.428 110.143-29.428c39.809 0 76.523 9.81 110.141 29.428 33.62 19.618 60.239 46.238 79.857 79.857 19.618 33.618 29.428 70.332 29.428 110.142s-9.812 76.524-29.43 110.143zM293.675 106.8c-13.522-15.019-31.088-24.293-52.695-27.827v-35.676c0-1.899-0.613-3.463-1.834-4.688-1.223-1.221-2.786-1.833-4.69-1.833h-27.519c-1.767 0-3.296 0.644-4.587 1.937-1.291 1.291-1.937 2.82-1.937 4.584v35.676c-8.97 1.221-17.633 3.33-25.992 6.319-8.357 2.992-15.255 6.015-20.691 9.072-5.436 3.057-10.464 6.317-15.084 9.785-4.62 3.465-7.78 6.014-9.479 7.644s-2.889 2.853-3.568 3.668c-2.311 2.853-2.447 5.64-0.408 8.358l20.998 27.519c0.951 1.359 2.514 2.173 4.689 2.448 2.037 0.272 3.668-0.339 4.892-1.834l0.408-0.407c15.357-13.455 31.869-21.95 49.536-25.485 5.028-1.086 10.057-1.627 15.085-1.627 11.007 0 20.691 2.92 29.049 8.764 8.358 5.841 12.536 14.132 12.536 24.87 0 3.805-1.021 7.406-3.058 10.805-2.038 3.397-4.313 6.248-6.828 8.561-2.514 2.31-6.49 4.856-11.925 7.644-5.438 2.785-9.922 4.96-13.455 6.522-3.532 1.563-8.969 3.771-16.309 6.625-5.299 2.173-9.479 3.875-12.536 5.099-3.059 1.221-7.238 3.023-12.538 5.401-5.299 2.377-9.547 4.485-12.74 6.317-3.195 1.836-7.033 4.248-11.518 7.238s-8.119 5.877-10.905 8.664-5.742 6.115-8.868 9.989c-3.125 3.875-5.538 7.814-7.238 11.824-1.698 4.009-3.125 8.527-4.281 13.555-1.155 5.028-1.732 10.328-1.732 15.901 0 18.755 6.66 35.199 19.977 49.332 13.317 14.134 30.644 23.239 51.983 27.317v36.694c0 1.767 0.645 3.296 1.937 4.587 1.291 1.291 2.82 1.937 4.587 1.937h27.519c1.903 0 3.466-0.611 4.691-1.835 1.221-1.221 1.834-2.785 1.834-4.689v-35.877c7.745-0.816 15.255-2.378 22.524-4.689 7.272-2.31 13.183-4.588 17.737-6.829 4.555-2.243 8.868-4.79 12.943-7.644 4.077-2.853 6.728-4.824 7.952-5.912 1.221-1.087 2.243-2.038 3.057-2.853 2.31-2.446 2.651-5.028 1.021-7.745l-16.512-29.762c-1.089-2.039-2.651-3.125-4.689-3.262-1.903-0.407-3.738 0.068-5.504 1.428-0.408 0.408-1.393 1.223-2.955 2.447-1.563 1.223-4.214 3.023-7.952 5.401-3.737 2.38-7.712 4.552-11.925 6.524-4.213 1.971-9.275 3.738-15.188 5.301-5.911 1.563-11.721 2.344-17.429 2.344-12.91 0-23.442-2.923-31.596-8.765-8.155-5.845-12.231-13.387-12.231-22.627 0-3.533 0.578-6.796 1.733-9.785s3.159-5.809 6.012-8.459c2.855-2.65 5.538-4.892 8.053-6.727 2.513-1.836 6.32-3.94 11.415-6.319 5.097-2.38 9.208-4.214 12.333-5.505 3.125-1.291 7.883-3.159 14.269-5.604 7.204-2.718 12.708-4.86 16.512-6.422 3.805-1.563 8.97-3.941 15.495-7.136 6.522-3.192 11.651-6.081 15.389-8.664 3.738-2.582 7.951-5.978 12.64-10.193 4.69-4.212 8.291-8.527 10.803-12.942 2.517-4.418 4.657-9.617 6.424-15.596 1.764-5.979 2.648-12.367 2.648-19.163 0.001-20.796-6.759-38.703-20.282-53.719z" horiz-adv-x="438" />
<glyph unicode="&#xe025;" d="M445.976 329.559c-19.616 33.615-46.232 60.231-79.847 79.847-33.613 19.617-70.323 29.425-110.128 29.425-39.804 0-76.514-9.808-110.129-29.425s-60.231-46.233-79.847-79.847-29.425-70.325-29.425-110.13 9.808-76.514 29.425-110.128c19.617-33.615 46.232-60.232 79.847-79.847s70.323-29.425 110.129-29.425c39.805 0 76.514 9.809 110.128 29.425 33.615 19.616 60.232 46.232 79.847 79.847 19.616 33.613 29.425 70.324 29.425 110.128s-9.809 76.514-29.425 110.13zM402.271 141.071c0-7.183-2.555-13.332-7.671-18.447-5.115-5.115-11.267-7.673-18.449-7.673h-240.3c-7.183 0-13.332 2.558-18.447 7.673-5.114 5.115-7.673 11.263-7.673 18.447v78.358h109.703v-26.119c0-2.832 1.035-5.277 3.101-7.348 2.069-2.067 4.518-3.101 7.346-3.101h52.237c2.833 0 5.277 1.033 7.348 3.101 2.067 2.070 3.101 4.517 3.101 7.348l0.001 26.119h109.703v-78.358zM235.107 198.533v20.896h41.79v-20.897l-41.79 0.001zM402.271 235.101h-292.541v62.687c0 7.183 2.559 13.332 7.673 18.447 5.114 5.115 11.264 7.673 18.447 7.673h240.3c7.181 0 13.334-2.558 18.449-7.673 5.115-5.115 7.671-11.264 7.671-18.447l0.001-62.687z" />
<glyph unicode="&#xe026;" d="M191.763 195.948c-1.031-1.029-1.544-2.346-1.544-3.944v-10.975c0-1.596 0.513-2.916 1.544-3.947 1.028-1.024 2.343-1.538 3.943-1.538h120.68c1.603 0 2.916 0.513 3.945 1.538 1.027 1.031 1.541 2.351 1.541 3.947l-0.001 10.975c0 1.598-0.513 2.916-1.541 3.944-1.029 1.026-2.343 1.541-3.945 1.541h-120.679c-1.599 0-2.915-0.513-3.943-1.541zM445.976 329.559c-19.616 33.615-46.232 60.231-79.847 79.847-33.613 19.617-70.323 29.425-110.128 29.425-39.804 0-76.514-9.808-110.129-29.425s-60.231-46.233-79.847-79.847-29.425-70.325-29.425-110.13 9.808-76.514 29.425-110.128c19.617-33.615 46.232-60.232 79.847-79.847s70.323-29.425 110.129-29.425c39.805 0 76.514 9.809 110.128 29.425 33.615 19.616 60.232 46.232 79.847 79.847 19.616 33.613 29.425 70.324 29.425 110.128s-9.809 76.514-29.425 110.13zM277.988 350.566c9.369-1.714 16.913-5.427 22.627-11.143l53.485-53.483c5.714-5.712 9.43-13.255 11.143-22.626h-87.252v87.252zM365.757 104.233c0-4.567-1.599-8.454-4.801-11.652-3.197-3.201-7.082-4.803-11.654-4.803h-186.506c-4.572 0-8.458 1.603-11.657 4.803-3.2 3.199-4.8 7.086-4.8 11.652l-0.001 230.392c0 4.57 1.6 8.457 4.8 11.655 3.199 3.201 7.084 4.8 11.657 4.8h93.252v-93.252c0-4.572 1.598-8.456 4.799-11.654 3.199-3.201 7.084-4.803 11.657-4.803h93.252l0.001-137.137zM316.387 153.604h-120.68c-1.599 0-2.915-0.513-3.943-1.541-1.031-1.029-1.544-2.344-1.544-3.947v-10.968c0-1.603 0.513-2.916 1.544-3.944 1.028-1.026 2.343-1.545 3.943-1.545h120.68c1.603 0 2.916 0.517 3.945 1.545 1.027 1.029 1.541 2.341 1.541 3.944v10.968c0 1.603-0.513 2.918-1.541 3.947-1.029 1.026-2.341 1.541-3.945 1.541z" />
<glyph unicode="&#xe027;" d="M217.185 235.046h74.18c1.058 0 2.094 0.387 3.112 1.16 1.016 0.772 1.689 1.688 2.012 2.744l2.565 7.809c0.324 1.057 0.243 1.972-0.245 2.744-0.488 0.774-1.303 1.16-2.441 1.16h-74.178c-1.057 0-2.095-0.387-3.112-1.16-1.017-0.772-1.689-1.688-2.015-2.744l-2.563-7.809c-0.325-1.057-0.244-1.972 0.245-2.744 0.488-0.774 1.302-1.16 2.44-1.16zM227.312 266.279h74.178c1.060 0 2.095 0.387 3.112 1.157 1.016 0.774 1.688 1.689 2.014 2.747l2.563 7.808c0.324 1.058 0.243 1.974-0.245 2.746-0.489 0.773-1.304 1.159-2.441 1.159h-74.18c-1.059 0-2.095-0.387-3.112-1.159s-1.688-1.688-2.012-2.746l-2.564-7.808c-0.326-1.057-0.244-1.973 0.244-2.747 0.489-0.772 1.302-1.157 2.441-1.157zM445.976 329.559c-19.616 33.615-46.232 60.231-79.847 79.847-33.613 19.617-70.323 29.425-110.128 29.425-39.804 0-76.514-9.808-110.129-29.425s-60.231-46.233-79.847-79.847-29.425-70.325-29.425-110.13 9.808-76.514 29.425-110.128c19.617-33.615 46.232-60.232 79.847-79.847s70.323-29.425 110.129-29.425c39.805 0 76.514 9.809 110.128 29.425 33.615 19.616 60.232 46.232 79.847 79.847 19.616 33.613 29.425 70.324 29.425 110.128s-9.809 76.514-29.425 110.13zM401.068 270.256l-48.363-159.339c-2.228-7.505-6.713-13.808-13.455-18.907-6.741-5.099-13.923-7.651-21.544-7.651h-162.329c-9.028 0-17.735 3.139-26.118 9.409-8.382 6.272-14.215 13.983-17.499 23.127-2.815 7.856-2.931 15.303-0.352 22.336 0 0.469 0.175 2.053 0.527 4.748 0.352 2.696 0.587 4.865 0.704 6.505 0.118 0.94-0.058 2.199-0.528 3.784-0.469 1.584-0.644 2.726-0.527 3.43 0.236 1.293 0.704 2.519 1.407 3.693 0.703 1.171 1.671 2.548 2.901 4.132 1.232 1.583 2.199 2.962 2.903 4.134 2.697 4.459 5.335 9.82 7.915 16.093 2.581 6.272 4.339 11.637 5.275 16.091 0.352 1.173 0.381 2.933 0.088 5.276-0.292 2.348-0.322 3.988-0.088 4.925 0.352 1.288 1.349 2.93 2.991 4.923 1.641 1.995 2.639 3.343 2.989 4.046 2.463 4.223 4.923 9.616 7.387 16.179 2.463 6.567 3.928 11.844 4.398 15.829 0.118 1.055-0.030 2.932-0.44 5.627-0.411 2.697-0.381 4.339 0.088 4.923 0.47 1.526 1.76 3.312 3.869 5.363 2.111 2.053 3.401 3.372 3.869 3.958 2.227 3.049 4.72 8.001 7.476 14.861 2.756 6.858 4.368 12.517 4.835 16.971 0.118 0.937-0.060 2.433-0.528 4.484-0.47 2.052-0.587 3.606-0.352 4.66 0.236 0.938 0.762 1.994 1.583 3.167 0.821 1.173 1.877 2.521 3.166 4.046 1.291 1.524 2.287 2.757 2.991 3.694 0.939 1.407 1.905 3.195 2.903 5.363 0.996 2.169 1.876 4.221 2.639 6.155 0.762 1.935 1.701 4.046 2.814 6.332 1.114 2.286 2.258 4.163 3.429 5.627 1.173 1.466 2.727 2.844 4.661 4.135 1.934 1.289 4.046 1.964 6.332 2.022 2.286 0.060 5.070-0.263 8.355-0.967l-0.176-0.527c4.456 1.056 7.446 1.583 8.97 1.583h133.839c8.676 0 15.358-3.283 20.050-9.848 4.687-6.567 5.741-14.188 3.166-22.865l-48.188-159.339c-4.221-13.953-8.413-22.952-12.576-26.997-4.166-4.046-11.696-6.067-22.6-6.067l-152.84 0.001c-3.166 0-5.393-0.879-6.684-2.637-1.291-1.877-1.349-4.397-0.176-7.563 2.814-8.209 11.256-12.312 25.326-12.312h162.332c3.401 0 6.683 0.909 9.848 2.728 3.166 1.82 5.215 4.248 6.154 7.297l52.761 173.585c0.822 2.581 1.115 5.921 0.881 10.025 4.455-1.76 7.914-4.279 10.373-7.564 4.692-6.683 5.747-14.244 3.167-22.687z" />
<glyph unicode="&#xe028;" d="M191.873 223.021v-1.025c0-35.399 16.416-64.64 43.090-78.491l32.832 165.702c-43.601-1.54-75.923-39.5-75.923-86.185zM445.976 329.559c-19.616 33.615-46.232 60.231-79.847 79.847-33.613 19.617-70.323 29.425-110.128 29.425-39.804 0-76.514-9.808-110.129-29.425s-60.231-46.233-79.847-79.847-29.425-70.325-29.425-110.13 9.808-76.514 29.425-110.128c19.617-33.615 46.232-60.232 79.847-79.847s70.323-29.425 110.129-29.425c39.805 0 76.514 9.809 110.128 29.425 33.615 19.616 60.232 46.232 79.847 79.847 19.616 33.613 29.425 70.324 29.425 110.128s-9.809 76.514-29.425 110.13zM269.339 80.914h-3.593l-8.208-44.115h-45.145l10.26 52.324c-53.865 18.983-91.316 70.798-91.316 131.845v1.026c0 77.464 59.512 141.079 140.565 141.079h4.104l7.695 38.988h45.145l-9.233-45.659c23.087-7.18 43.094-20.521 60.536-40.015l-37.449-40.016c-11.8 11.8-23.598 20.008-35.911 25.139l-32.321-166.728c28.216 0.513 50.788 14.363 70.283 33.858l35.911-35.912c-26.676-30.264-60.534-51.813-111.321-51.813z" />
<glyph unicode="&#xe600;" d="M36.572 402.286h201.143l164.571-183.266-164.571-182.448h-201.143l164.571 182.857zM54.857 320.97v-203.175l91.429 101.36z" horiz-adv-x="439" />
</font>
</defs>
</svg>
